<?xml version="1.0" standalone="no"?>
<!DOCTYPE svg PUBLIC "-//W3C//DTD SVG 1.1//EN" "http://www.w3.org/Graphics/SVG/1.1/DTD/svg11.dtd" >
<svg xmlns="http://www.w3.org/2000/svg" xmlns:xlink="http://www.w3.org/1999/xlink" version="1.1">
<metadata>
Created by FontForge 20170731 at Mon Aug 19 06:39:47 2013
 By Aleksey,,,
copyright missing
</metadata>
<defs>
<font id="Recorda-Thin" horiz-adv-x="600" >
  <font-face 
    font-family="Recorda Thin"
    font-weight="250"
    font-stretch="normal"
    units-per-em="1000"
    panose-1="0 0 3 0 0 0 0 0 0 0"
    ascent="800"
    descent="-200"
    x-height="700"
    cap-height="700"
    bbox="0 -200 1286 927"
    underline-thickness="50"
    underline-position="-200"
    unicode-range="U+0020-25CA"
  />
<missing-glyph horiz-adv-x="500" 
d="M0 0v700h500v-700h-500zM80 650l170 -255l170 255h-340zM220 350l-170 255v-510zM450 605l-170 -255l170 -255v510zM250 305l-170 -255h340z" />
    <glyph glyph-name=".notdef" horiz-adv-x="500" 
d="M0 0v700h500v-700h-500zM80 650l170 -255l170 255h-340zM220 350l-170 255v-510zM450 605l-170 -255l170 -255v510zM250 305l-170 -255h340z" />
    <glyph glyph-name=".null" horiz-adv-x="0" 
 />
    <glyph glyph-name="nonmarkingreturn" horiz-adv-x="333" 
 />
    <glyph glyph-name="space" unicode=" " horiz-adv-x="500" 
 />
    <glyph glyph-name="exclam" unicode="!" horiz-adv-x="200" 
d="M110 700h-20v-598h20v598zM120 20q0 8 -6 14t-14 6t-14 -6t-6 -14t6 -14t14 -6t14 6t6 14z" />
    <glyph glyph-name="quotedbl" unicode="&#x22;" horiz-adv-x="240" 
d="M80 700h20v-175h-20v175zM140 700h20v-175h-20v175z" />
    <glyph glyph-name="numbersign" unicode="#" horiz-adv-x="567" 
d="M513 190h-135l-39 -190h-20l39 190h-190l-39 -190h-21l82 401h-140l4 20h140l39 190h20l-38 -190h190l38 190h21l-82 -401h135zM362 210l39 191h-191l-38 -191h190z" />
    <glyph glyph-name="dollar" unicode="$" horiz-adv-x="521" 
d="M430 530h-20q0 62 -44 106t-106 44q-61 0 -105 -44q-44 -42 -44 -106q0 -62 44 -106q43 -43 105 -43q79 0 135 -56t56 -135q0 -76 -52.5 -131t-128.5 -59v-88h-20v88q-75 4 -127.5 59t-52.5 131h20q0 -70 50 -120q48 -50 120 -50q73 0 121 50q50 50 50 120q0 69 -50 121
q-50 50 -121 50q-70 0 -119.5 49.5t-49.5 119.5q0 67 46 116t113 53v88h20v-88q67 -4 113.5 -53t46.5 -116z" />
    <glyph glyph-name="percent" unicode="%" horiz-adv-x="738" 
d="M209 700q62 0 106 -43.5t44 -105.5t-44 -106t-106 -44t-105.5 44t-43.5 106q0 61 44 105t105 44zM157 0l399 700h23l-399 -700h-23zM209 680q-55 0 -91 -38q-38 -36 -38 -91q0 -54 38 -92t91 -38q52 0 92 38q38 40 38 92q0 53 -38 91t-92 38zM529 299q62 0 105.5 -44
t43.5 -106q0 -61 -44 -105t-105 -44t-105 44t-44 105q0 62 43.5 106t105.5 44zM529 279q-53 0 -91 -38t-38 -92q0 -55 38 -91q36 -38 91 -38t91 38q38 36 38 91q0 54 -38 92t-91 38z" />
    <glyph glyph-name="ampersand" unicode="&#x26;" horiz-adv-x="673" 
d="M603 147l-119 -85l-28 -19q-83 -59 -182.5 -42t-158.5 100q-59 82 -41.5 182.5t99.5 158.5l28 20l-109 153l72 51q58 41 128.5 29t111.5 -70t29 -129t-70 -112l-55 -39l181 -255l103 73zM120 610l176 -248l55 39q52 35 63 98q11 62 -26 114q-37 51 -99 62t-114 -26z
M472 78l-263 372l3 -5l-27 -19q-38 -27 -61 -65q-24 -40 -31 -81t2 -86q11 -46 36 -81q27 -38 65 -62q38 -23 81 -30q42 -7 86 2q45 9 82 36z" />
    <glyph glyph-name="quotesingle" unicode="'" horiz-adv-x="180" 
d="M80 700h20v-175h-20v175z" />
    <glyph glyph-name="parenleft" unicode="(" horiz-adv-x="635" 
d="M285 18l-9 -18q-94 52 -150 145.5t-56 204.5t56 204.5t150 145.5l9 -18q-47 -26 -84 -63q-52 -52 -81 -121q-30 -70 -30 -148t30 -148q29 -69 81 -121q37 -37 84 -63z" />
    <glyph glyph-name="parenright" unicode=")" horiz-adv-x="635" 
d="M350 18l9 -18q94 52 150 145.5t56 204.5t-56 204.5t-150 145.5l-9 -18q46 -26 84 -63q52 -52 81 -121q30 -70 30 -148t-30 -148q-29 -69 -81 -121q-38 -37 -84 -63z" />
    <glyph glyph-name="asterisk" unicode="*" horiz-adv-x="536" 
d="M362 700l94 -162l-94 -163h-188l-94 163l94 162h188zM192 685l76 -132l77 132h-153zM102 545h153l-76 133zM434 545l-77 133l-76 -133h153zM179 398l76 132h-153zM434 530h-153l76 -132zM345 390l-77 133l-76 -133h153z" />
    <glyph glyph-name="plus" unicode="+" horiz-adv-x="637" 
d="M308 341h-228v20h228v228h20v-228h229v-20h-229v-229h-20v229z" />
    <glyph glyph-name="comma" unicode="," horiz-adv-x="232" 
d="M80 -89l53 178h19l-52 -178h-20z" />
    <glyph glyph-name="hyphen" unicode="-" horiz-adv-x="416" 
d="M333 360h-253v-20h253v20z" />
    <glyph glyph-name="period" unicode="." horiz-adv-x="200" 
d="M120 20q0 8 -6 14t-14 6t-14 -6t-6 -14t6 -14t14 -6t14 6t6 14z" />
    <glyph glyph-name="slash" unicode="/" horiz-adv-x="378" 
d="M60 0l236 700h22l-237 -700h-21z" />
    <glyph glyph-name="zero" unicode="0" horiz-adv-x="800" 
d="M400 700q145 0 247.5 -102.5t102.5 -247.5t-102.5 -247.5t-247.5 -102.5t-247.5 102.5t-102.5 247.5t102.5 247.5t247.5 102.5zM174 590l467 -466q41 44 63 98q26 58 26 128t-26 128q-23 58 -70 105q-45 45 -105 71q-63 26 -129 26q-65 0 -128 -26q-53 -22 -98 -64z
M627 110l-467 466q-40 -43 -64 -98q-26 -61 -26 -128t26 -128q25 -59 71 -105q42 -44 105 -71q63 -26 128 -26q66 0 129 26q53 22 98 64z" />
    <glyph glyph-name="one" unicode="1" horiz-adv-x="276" 
d="M196 700v-700h-20v680h-116v20h136z" />
    <glyph glyph-name="two" unicode="2" horiz-adv-x="519" 
d="M469 20h-365l315 353q49 57 49 130q0 82 -58 139.5t-139 57.5q-77 0 -135 -53q-56 -53 -62 -130h20q5 68 56 116q52 47 121 47q73 0 125 -52t52 -125q0 -65 -44 -117l-344 -386h409v20z" />
    <glyph glyph-name="three" unicode="3" horiz-adv-x="635" 
d="M585 700l-179 -181q79 -28 129 -97t50 -155q0 -110 -78.5 -188.5t-188.5 -78.5q-92 0 -163 55.5t-95 141.5l16 17l1 -1l460 467h-384v20h432zM391 503l-308 -313q5 -15 7 -19q20 -46 53 -79q36 -34 79 -53q48 -19 96 -19q47 0 96 19q45 20 78 53q36 36 53 79q20 46 20 96
t-20 96q-18 44 -53 79q-34 34 -78 52q-5 2 -13 5t-10 4z" />
    <glyph glyph-name="four" unicode="4" horiz-adv-x="574" 
d="M501 0l-58 103h-403l321 597h22l-122 -228l263 -472h-23zM436 116l-187 335l-176 -328h359z" />
    <glyph glyph-name="five" unicode="5" horiz-adv-x="564" 
d="M129 495h137q103 0 175.5 -72.5t72.5 -174.5q0 -103 -72.5 -175.5t-175.5 -72.5q-104 0 -174 72l9 19l4 -4q33 -33 72 -49q43 -18 89 -18q47 0 89 18q39 16 72 49q31 31 49 72q18 42 18 89q0 46 -18 88q-20 44 -49 72q-33 33 -72 49q-42 18 -89 18h-148l-50 -97l-18 10
l164 312h203v-20h-191z" />
    <glyph glyph-name="six" unicode="6" horiz-adv-x="633" 
d="M295 700l-134 -217q71 50 156 50q110 0 188 -78t78 -188q0 -111 -78 -189t-188 -78q-111 0 -189 78t-78 189q0 81 46 149l176 284h23zM491 92q34 36 53 79q19 47 19 96q0 47 -19 95q-19 43 -53 79q-36 34 -79 53q-48 19 -95 19q-49 0 -96 -19q-43 -19 -79 -53
q-34 -36 -53 -79q-19 -48 -19 -95q0 -49 19 -96q19 -43 53 -79q36 -34 79 -53q47 -19 96 -19q47 0 95 19q43 19 79 53z" />
    <glyph glyph-name="seven" unicode="7" horiz-adv-x="592" 
d="M60 680v20h462l-269 -700h-22l262 680h-433z" />
    <glyph glyph-name="eight" unicode="8" horiz-adv-x="568" 
d="M342 420q68 -20 112 -76.5t44 -129.5q0 -88 -63 -151t-151 -63t-151 63t-63 151q0 73 44 129.5t112 76.5q-39 17 -63.5 53t-24.5 81q0 61 42.5 103.5t103.5 42.5q60 0 103 -42.5t43 -103.5q0 -45 -24.5 -81t-63.5 -53zM158 554q0 -51 36 -89q37 -37 90 -37q52 0 89 37
t37 89t-37 89t-89 37q-53 0 -90 -37q-36 -38 -36 -89zM421 77q57 57 57 137q0 78 -57 137q-57 57 -137 57q-82 0 -137 -57q-57 -57 -57 -137q0 -82 57 -137q55 -57 137 -57q80 0 137 57z" />
    <glyph glyph-name="nine" unicode="9" horiz-adv-x="633" 
d="M338 0l134 217q-71 -50 -155 -50q-111 0 -189 78t-78 189q0 110 78 188t189 78q110 0 188 -78t78 -188q0 -82 -46 -150l-176 -284h-23zM142 608q-34 -36 -53 -79q-19 -47 -19 -95t19 -96q19 -43 53 -79q36 -34 79 -53q47 -19 96 -19q47 0 95 19q43 19 79 53q34 36 53 79
q19 48 19 96t-19 95q-19 43 -53 79q-36 34 -79 53q-48 19 -95 19q-49 0 -96 -19q-43 -19 -79 -53z" />
    <glyph glyph-name="colon" unicode=":" horiz-adv-x="200" 
d="M120 431q0 8 -6 14t-14 6t-14 -6t-6 -14t6 -14t14 -6t14 6t6 14zM120 269q0 8 -6 14t-14 6t-14 -6t-6 -14t6 -14t14 -6t14 6t6 14z" />
    <glyph glyph-name="semicolon" unicode=";" horiz-adv-x="208" 
d="M138 475q0 8 -6 14t-14 6t-14 -6t-6 -14t6 -14t14 -6t14 6t6 14zM70 205l38 128h20l-38 -128h-20z" />
    <glyph glyph-name="less" unicode="&#x3c;" horiz-adv-x="415" 
d="M345 186l-285 164l285 164v-23l-245 -141l245 -141v-23z" />
    <glyph glyph-name="equal" unicode="=" horiz-adv-x="554" 
d="M80 443h394v-20h-394v20zM474 257h-394v20h394v-20z" />
    <glyph glyph-name="greater" unicode="&#x3e;" horiz-adv-x="401" 
d="M341 350l-271 -156v23l231 133l-231 133v23z" />
    <glyph glyph-name="question" unicode="?" horiz-adv-x="470" 
d="M235 145h-20q0 49 21 99q18 41 46 77q23 31 55 60l-287 185l3 7q15 45 52 79q36 33 86 44q77 15 142 -26q67 -43 82 -119q11 -50 -4 -97q-15 -46 -50 -79l-1 -1q-32 -25 -63 -66q-62 -82 -62 -163zM75 574l278 -179q26 26 39 66q13 43 4 86q-16 69 -74 106
q-59 38 -127 23q-42 -9 -77 -39q-29 -26 -43 -63zM225 28q14 0 14 -14t-14 -14t-14 14t14 14z" />
    <glyph glyph-name="at" unicode="@" horiz-adv-x="820" 
d="M410 700q145 0 247.5 -102.5t102.5 -247.5q0 -132 -87 -231t-216 -116l-14 -2q-11 -1 -33 -1q-145 0 -247.5 102.5t-102.5 247.5t102.5 247.5t247.5 102.5zM607 412l61 145q-16 18 -24 26q-45 45 -105 71q-63 26 -129 26q-65 0 -128 -26q-63 -27 -105 -71
q-46 -46 -71 -105q-26 -61 -26 -128t26 -128q25 -59 71 -105q42 -44 105 -71q63 -26 128 -26q11 0 33 2l151 358q-11 61 -52 102q-54 54 -132 54q-77 0 -131 -54q-55 -55 -55 -132t55 -132q54 -54 131 -54q59 0 107 34l-13 -31q-43 -23 -94 -23q-86 0 -146 60t-60 146
t60 146t146 60q68 0 122.5 -40.5t74.5 -103.5zM681 538l-215 -513q37 6 73 21q60 26 105 71q46 46 71 105t25 128t-25 128q-14 34 -34 60z" />
    <glyph glyph-name="A" unicode="A" horiz-adv-x="650" 
d="M325 700l305 -700h-22l-56 127h-455l-55 -127h-22zM544 147l-219 503l-219 -503h438z" />
    <glyph glyph-name="B" unicode="B" horiz-adv-x="680" 
d="M391 418h5q86 0 147.5 -61.5t61.5 -147.5t-61.5 -147.5t-147.5 -61.5h-296v700h141q74 0 127 -53t53 -128q0 -55 -30 -101zM120 358h121q66 0 113 47t47 114t-47 114t-113 47h-121v-322zM120 20h276q77 0 134 55q55 57 55 134t-55 134q-57 55 -134 55h-21
q-54 -60 -134 -60h-121v-318z" />
    <glyph glyph-name="C" unicode="C" horiz-adv-x="730" 
d="M647 110l13 -15q-101 -95 -240 -95q-145 0 -247.5 102.5t-102.5 247.5t102.5 247.5t247.5 102.5q139 0 240 -95l-13 -15q-45 42 -98 64q-63 26 -129 26q-67 0 -128 -26q-62 -26 -105 -71q-46 -46 -71 -105q-26 -61 -26 -128t26 -128q25 -59 71 -105q43 -45 105 -71
q61 -26 128 -26q66 0 129 26q53 22 98 64z" />
    <glyph glyph-name="D" unicode="D" horiz-adv-x="759" 
d="M100 700h249q145 0 247.5 -102.5t102.5 -247.5t-102.5 -247.5t-247.5 -102.5h-249v700zM120 680v-660h229q66 0 129 26q61 27 104 71q47 46 71 105q26 61 26 128t-26 128q-24 59 -71 105q-43 44 -104 71q-63 26 -129 26h-229z" />
    <glyph glyph-name="E" unicode="E" horiz-adv-x="551" 
d="M85 680v20h381v-20h-381zM466 360v-20h-381v20h381zM85 20h381v-20h-381v20z" />
    <glyph glyph-name="F" unicode="F" horiz-adv-x="566" 
d="M120 0v340h361v20h-361v320h361v20h-381v-700h20z" />
    <glyph glyph-name="G" unicode="G" horiz-adv-x="809" 
d="M519 350l230 -227l-15 -14l-39 39q-48 -69 -123 -108.5t-162 -39.5q-145 0 -247.5 102.5t-102.5 247.5t102.5 247.5t247.5 102.5q139 0 240 -95l-14 -15q-43 42 -98 64q-63 26 -128 26q-66 0 -129 -26q-60 -26 -105 -71q-47 -47 -70 -105q-26 -58 -26 -128t26 -128
q23 -58 70 -105q45 -45 105 -71q63 -26 129 -26q65 0 128 26q63 27 105 71q23 23 38 45l-190 188h28z" />
    <glyph glyph-name="H" unicode="H" horiz-adv-x="664" 
d="M544 700h20v-700h-20v127h-424v-127h-20v700h20v-553h424v553z" />
    <glyph glyph-name="I" unicode="I" horiz-adv-x="344" 
d="M182 680v-660h52v-20h-124v20h52v660h-52v20h124v-20h-52z" />
    <glyph glyph-name="J" unicode="J" horiz-adv-x="624" 
d="M524 700v-468q0 -96 -68 -164t-164 -68t-164 68t-68 164h20q0 -41 17 -83q16 -37 45 -67q32 -31 68 -45q40 -17 82 -17q43 0 83 17q37 15 67 45q30 29 46 67q16 39 16 83v448h-212l9 20h223z" />
    <glyph glyph-name="K" unicode="K" horiz-adv-x="666" 
d="M100 0v700h20v-636l442 636h24l-221 -318l200 -382h-22l-191 363z" />
    <glyph glyph-name="L" unicode="L" horiz-adv-x="566" 
d="M481 20h-361v680h-20v-700h381v20z" />
    <glyph glyph-name="M" unicode="M" horiz-adv-x="788" 
d="M688 691v-691h-20v641l-259 -276l-15 -15l-14 15l-260 284v-649h-20v700l294 -321z" />
    <glyph glyph-name="N" unicode="N" horiz-adv-x="664" 
d="M544 700h20v-700h-20v340l-424 320v-660h-20v700l444 -335v335z" />
    <glyph glyph-name="O" unicode="O" horiz-adv-x="820" 
d="M410 700q145 0 247.5 -102.5t102.5 -247.5t-102.5 -247.5t-247.5 -102.5t-247.5 102.5t-102.5 247.5t102.5 247.5t247.5 102.5zM410 680q-67 0 -128 -26q-63 -27 -105 -71q-46 -46 -71 -105q-26 -61 -26 -128t26 -128q25 -59 71 -105q42 -44 105 -71q61 -26 128 -26
q66 0 129 26q60 26 105 71q47 47 70 105q26 58 26 128t-26 128q-23 58 -70 105q-45 45 -105 71q-63 26 -129 26zM410 370q8 0 14 -6t6 -14t-6 -14t-14 -6t-14 6t-6 14t6 14t14 6z" />
    <glyph glyph-name="P" unicode="P" horiz-adv-x="635" 
d="M100 700h177q119 0 203.5 -84.5t84.5 -203.5q0 -120 -84.5 -204.5t-203.5 -84.5h-157v-123h-20v700zM120 143h157q55 0 104 21q51 22 85 58q36 34 58 85q21 49 21 105q0 54 -21 104q-22 51 -58 85q-34 36 -85 58q-50 21 -104 21h-157v-537z" />
    <glyph glyph-name="Q" unicode="Q" horiz-adv-x="820" 
d="M410 700q145 0 247.5 -102.5t102.5 -247.5t-102.5 -247.5t-247.5 -102.5t-247.5 102.5t-102.5 247.5t102.5 247.5t247.5 102.5zM413 350l190 -268q22 17 41 35q46 46 71 105t25 128t-25 128t-71 105q-45 45 -105 71q-63 26 -129 26q-65 0 -128 -26q-63 -27 -105 -71
q-46 -46 -71 -105q-26 -61 -26 -128t26 -128q25 -59 71 -105q42 -44 105 -71q63 -26 128 -26q66 0 129 26q27 11 48 25l-199 279h25z" />
    <glyph glyph-name="R" unicode="R" horiz-adv-x="662" 
d="M100 700h201q121 0 206 -85t85 -206q0 -91 -51 -164.5t-132 -105.5l87 -139h-24l-179 287h23l82 -131l8 3q49 19 86 58q38 38 59 86q21 51 21 106t-21 105q-21 49 -59 87q-37 37 -86 58q-50 21 -105 21h-181v-680h-20v700z" />
    <glyph glyph-name="S" unicode="S" horiz-adv-x="531" 
d="M435 530h-20q0 62 -44 106t-106 44q-61 0 -105 -44q-44 -42 -44 -106q0 -63 44 -105q42 -44 105 -44q79 0 135 -56t56 -135t-56 -134.5t-135 -55.5t-134.5 55.5t-55.5 134.5h20q0 -70 50 -120t120 -50q71 0 121 50t50 120q0 71 -50 121t-121 50q-70 0 -119.5 50.5
t-49.5 118.5q0 70 49.5 120t119.5 50q71 0 120.5 -50t49.5 -120z" />
    <glyph glyph-name="T" unicode="T" horiz-adv-x="521" 
d="M70 700v-20h181v-680h20v680h180v20h-381z" />
    <glyph glyph-name="U" unicode="U" horiz-adv-x="754" 
d="M654 700v-423q0 -115 -81 -196t-196 -81t-196 81t-81 196v423h20v-423q0 -51 20 -100q18 -44 55 -82q38 -37 82 -55q49 -20 100 -20t100 20q44 18 82 55q37 38 55 82q20 49 20 100v423h20z" />
    <glyph glyph-name="V" unicode="V" horiz-adv-x="650" 
d="M630 700l-305 -700l-305 700h22l283 -650l283 650h22z" />
    <glyph glyph-name="W" unicode="W" horiz-adv-x="878" 
d="M449 0l-160 274l-161 -274h-23l172 294l-237 406h23l226 -386l226 386h24l-238 -406l148 -254l386 660h23z" />
    <glyph glyph-name="X" unicode="X" horiz-adv-x="574" 
d="M275 350l-205 350h23l194 -330l193 330h24l-206 -350l205 -350h-23l-193 330l-194 -330h-23z" />
    <glyph glyph-name="Y" unicode="Y" horiz-adv-x="612" 
d="M316 134v-134h-20v134l-276 566h22l264 -541l264 541h22z" />
    <glyph glyph-name="Z" unicode="Z" horiz-adv-x="644" 
d="M554 700l-428 -680h428v-20h-464l19 31l408 649h-427v20h464z" />
    <glyph glyph-name="bracketleft" unicode="[" horiz-adv-x="350" 
d="M100 -180h150v-20h-170v1000h170v-20h-150v-960z" />
    <glyph glyph-name="backslash" unicode="\" horiz-adv-x="378" 
d="M318 0l-237 700h-21l236 -700h22z" />
    <glyph glyph-name="bracketright" unicode="]" horiz-adv-x="350" 
d="M250 -180h-150v-20h170v1000h-170v-20h150v-960z" />
    <glyph glyph-name="asciicircum" unicode="^" horiz-adv-x="472" 
d="M80 429l156 271l156 -271h-23l-133 231l-133 -231h-23z" />
    <glyph glyph-name="underscore" unicode="_" horiz-adv-x="546" 
d="M466 0h-386v20h386v-20z" />
    <glyph glyph-name="grave" unicode="`" 
 />
    <glyph glyph-name="a" unicode="a" horiz-adv-x="650" 
d="M325 700l305 -700h-22l-56 127h-455l-55 -127h-22zM544 147l-219 503l-219 -503h438z" />
    <glyph glyph-name="b" unicode="b" horiz-adv-x="680" 
d="M391 418h5q86 0 147.5 -61.5t61.5 -147.5t-61.5 -147.5t-147.5 -61.5h-296v700h141q74 0 127 -53t53 -128q0 -55 -30 -101zM120 358h121q66 0 113 47t47 114t-47 114t-113 47h-121v-322zM120 20h276q77 0 134 55q55 57 55 134t-55 134q-57 55 -134 55h-21
q-54 -60 -134 -60h-121v-318z" />
    <glyph glyph-name="c" unicode="c" horiz-adv-x="730" 
d="M647 110l13 -15q-101 -95 -240 -95q-145 0 -247.5 102.5t-102.5 247.5t102.5 247.5t247.5 102.5q139 0 240 -95l-13 -15q-45 42 -98 64q-63 26 -129 26q-67 0 -128 -26q-62 -26 -105 -71q-46 -46 -71 -105q-26 -61 -26 -128t26 -128q25 -59 71 -105q43 -45 105 -71
q61 -26 128 -26q66 0 129 26q53 22 98 64z" />
    <glyph glyph-name="d" unicode="d" horiz-adv-x="759" 
d="M100 700h249q145 0 247.5 -102.5t102.5 -247.5t-102.5 -247.5t-247.5 -102.5h-249v700zM120 680v-660h229q66 0 129 26q61 27 104 71q47 46 71 105q26 61 26 128t-26 128q-24 59 -71 105q-43 44 -104 71q-63 26 -129 26h-229z" />
    <glyph glyph-name="e" unicode="e" horiz-adv-x="581" 
d="M481 20h-361v320h361v20h-361v320h361v20h-381v-700h381v20z" />
    <glyph glyph-name="f" unicode="f" horiz-adv-x="566" 
d="M120 0v340h361v20h-361v320h361v20h-381v-700h20z" />
    <glyph glyph-name="g" unicode="g" horiz-adv-x="809" 
d="M519 350l230 -227l-15 -14l-39 39q-48 -69 -123 -108.5t-162 -39.5q-145 0 -247.5 102.5t-102.5 247.5t102.5 247.5t247.5 102.5q139 0 240 -95l-14 -15q-43 42 -98 64q-63 26 -128 26q-66 0 -129 -26q-60 -26 -105 -71q-47 -47 -70 -105q-26 -58 -26 -128t26 -128
q23 -58 70 -105q45 -45 105 -71q63 -26 129 -26q65 0 128 26q63 27 105 71q23 23 38 45l-190 188h28z" />
    <glyph glyph-name="h" unicode="h" horiz-adv-x="664" 
d="M544 700h20v-700h-20v127h-424v-127h-20v700h20v-553h424v553z" />
    <glyph glyph-name="i" unicode="i" horiz-adv-x="344" 
d="M182 680v-660h52v-20h-124v20h52v660h-52v20h124v-20h-52z" />
    <glyph glyph-name="j" unicode="j" horiz-adv-x="624" 
d="M524 700v-468q0 -96 -68 -164t-164 -68t-164 68t-68 164h20q0 -41 17 -83q16 -37 45 -67q32 -31 68 -45q40 -17 82 -17q43 0 83 17q37 15 67 45q30 29 46 67q16 39 16 83v448h-212l9 20h223z" />
    <glyph glyph-name="k" unicode="k" horiz-adv-x="666" 
d="M100 0v700h20v-636l442 636h24l-221 -318l200 -382h-22l-191 363z" />
    <glyph glyph-name="l" unicode="l" horiz-adv-x="566" 
d="M481 20h-361v680h-20v-700h381v20z" />
    <glyph glyph-name="m" unicode="m" horiz-adv-x="788" 
d="M688 691v-691h-20v641l-259 -276l-15 -15l-14 15l-260 284v-649h-20v700l294 -321z" />
    <glyph glyph-name="n" unicode="n" horiz-adv-x="664" 
d="M544 700h20v-700h-20v340l-424 320v-660h-20v700l444 -335v335z" />
    <glyph glyph-name="o" unicode="o" horiz-adv-x="820" 
d="M410 700q145 0 247.5 -102.5t102.5 -247.5t-102.5 -247.5t-247.5 -102.5t-247.5 102.5t-102.5 247.5t102.5 247.5t247.5 102.5zM410 680q-67 0 -128 -26q-63 -27 -105 -71q-46 -46 -71 -105q-26 -61 -26 -128t26 -128q25 -59 71 -105q42 -44 105 -71q61 -26 128 -26
q66 0 129 26q60 26 105 71q47 47 70 105q26 58 26 128t-26 128q-23 58 -70 105q-45 45 -105 71q-63 26 -129 26zM410 370q8 0 14 -6t6 -14t-6 -14t-14 -6t-14 6t-6 14t6 14t14 6z" />
    <glyph glyph-name="p" unicode="p" horiz-adv-x="635" 
d="M100 700h177q119 0 203.5 -84.5t84.5 -203.5q0 -120 -84.5 -204.5t-203.5 -84.5h-157v-123h-20v700zM120 143h157q55 0 104 21q51 22 85 58q36 34 58 85q21 49 21 105q0 54 -21 104q-22 51 -58 85q-34 36 -85 58q-50 21 -104 21h-157v-537z" />
    <glyph glyph-name="q" unicode="q" horiz-adv-x="820" 
d="M410 700q145 0 247.5 -102.5t102.5 -247.5t-102.5 -247.5t-247.5 -102.5t-247.5 102.5t-102.5 247.5t102.5 247.5t247.5 102.5zM413 350l190 -268q22 17 41 35q46 46 71 105t25 128t-25 128t-71 105q-45 45 -105 71q-63 26 -129 26q-65 0 -128 -26q-63 -27 -105 -71
q-46 -46 -71 -105q-26 -61 -26 -128t26 -128q25 -59 71 -105q42 -44 105 -71q63 -26 128 -26q66 0 129 26q27 11 48 25l-199 279h25z" />
    <glyph glyph-name="r" unicode="r" horiz-adv-x="662" 
d="M100 700h201q121 0 206 -85t85 -206q0 -91 -51 -164.5t-132 -105.5l87 -139h-24l-179 287h23l82 -131l8 3q49 19 86 58q38 38 59 86q21 51 21 106t-21 105q-21 49 -59 87q-37 37 -86 58q-50 21 -105 21h-181v-680h-20v700z" />
    <glyph glyph-name="s" unicode="s" horiz-adv-x="531" 
d="M435 530h-20q0 62 -44 106t-106 44q-61 0 -105 -44q-44 -42 -44 -106q0 -63 44 -105q42 -44 105 -44q79 0 135 -56t56 -135t-56 -134.5t-135 -55.5t-134.5 55.5t-55.5 134.5h20q0 -70 50 -120t120 -50q71 0 121 50t50 120q0 71 -50 121t-121 50q-70 0 -119.5 50.5
t-49.5 118.5q0 70 49.5 120t119.5 50q71 0 120.5 -50t49.5 -120z" />
    <glyph glyph-name="t" unicode="t" horiz-adv-x="521" 
d="M70 700v-20h181v-680h20v680h180v20h-381z" />
    <glyph glyph-name="u" unicode="u" horiz-adv-x="754" 
d="M654 700v-423q0 -115 -81 -196t-196 -81t-196 81t-81 196v423h20v-423q0 -51 20 -100q18 -44 55 -82q38 -37 82 -55q49 -20 100 -20t100 20q44 18 82 55q37 38 55 82q20 49 20 100v423h20z" />
    <glyph glyph-name="v" unicode="v" horiz-adv-x="650" 
d="M630 700l-305 -700l-305 700h22l283 -650l283 650h22z" />
    <glyph glyph-name="w" unicode="w" horiz-adv-x="878" 
d="M449 0l-160 274l-161 -274h-23l172 294l-237 406h23l226 -386l226 386h24l-238 -406l148 -254l386 660h23z" />
    <glyph glyph-name="x" unicode="x" horiz-adv-x="574" 
d="M275 350l-205 350h23l194 -330l193 330h24l-206 -350l205 -350h-23l-193 330l-194 -330h-23z" />
    <glyph glyph-name="y" unicode="y" horiz-adv-x="612" 
d="M316 134v-134h-20v134l-276 566h22l264 -541l264 541h22z" />
    <glyph glyph-name="z" unicode="z" horiz-adv-x="644" 
d="M554 700l-428 -680h428v-20h-464l19 31l408 649h-427v20h464z" />
    <glyph glyph-name="braceleft" unicode="{" horiz-adv-x="355" 
d="M175 570v-125q0 -31 -16.5 -56.5t-43.5 -38.5q27 -13 43.5 -38.5t16.5 -56.5v-125q0 -46 32 -78t77 -32v-20q-53 0 -91 38t-38 92v125q0 35 -25 60t-60 25v20q35 0 60 25t25 60v125q0 54 38 92t92 38v-20q-46 0 -78 -32t-32 -78z" />
    <glyph glyph-name="bar" unicode="|" horiz-adv-x="420" 
d="M220 800v-1000h-20v1000h20z" />
    <glyph glyph-name="braceright" unicode="}" horiz-adv-x="354" 
d="M180 130v125q0 31 16.5 56.5t43.5 38.5q-27 13 -43.5 38.5t-16.5 56.5v125q0 46 -32.5 78t-77.5 32v20q53 0 91.5 -38t38.5 -92v-125q0 -35 24.5 -60t59.5 -25v-20q-35 0 -59.5 -25t-24.5 -60v-125q0 -54 -38 -92t-92 -38v20q45 0 77.5 32t32.5 78z" />
    <glyph glyph-name="asciitilde" unicode="~" horiz-adv-x="425" 
d="M87 381l83 -46l85 48l90 -50l-7 -13l-83 46l-85 -48l-90 50z" />
    <glyph glyph-name="exclamdown" unicode="&#xa1;" 
 />
    <glyph glyph-name="cent" unicode="&#xa2;" horiz-adv-x="690" 
d="M640 605l-13 -15q-45 42 -98 64q-63 26 -129 26q-67 0 -128 -26q-62 -26 -105 -71q-46 -46 -71 -105q-26 -61 -26 -128t26 -128q25 -59 71 -105q43 -45 105 -71q61 -26 128 -26q66 0 129 26q53 22 98 64l13 -15q-97 -91 -230 -95v-87h-20v87q-141 5 -240.5 106.5
t-99.5 243.5t99.5 244t240.5 106v88h20v-88q133 -4 230 -95z" />
    <glyph glyph-name="sterling" unicode="&#xa3;" horiz-adv-x="597" 
d="M537 0h-477v20h60v425q0 106 74.5 180.5t180.5 74.5q91 0 162 -58l-13 -15q-26 21 -58 35q-44 18 -91 18q-49 0 -91 -18q-45 -19 -75 -51q-32 -30 -51 -75q-18 -42 -18 -91v-158h289v-20h-289v-247h397v-20z" />
    <glyph glyph-name="currency" unicode="&#xa4;" horiz-adv-x="510" 
d="M430 511l-72 -72q33 -38 33 -90q0 -51 -33 -89l72 -71l-15 -14l-71 71q-39 -34 -90 -34q-50 0 -89 34l-71 -71l-14 14l71 71q-34 39 -34 89q0 51 34 90l-71 72l14 14l72 -71q38 32 88 32q52 0 90 -33l71 72zM371 349q0 49 -34 83t-83 34q-48 0 -82 -34t-34 -83
q0 -48 34 -82t82 -34q49 0 83 34t34 82z" />
    <glyph glyph-name="yen" unicode="&#xa5;" horiz-adv-x="632" 
d="M602 700l-166 -340h165l-9 -20h-166l-90 -185h165l-9 -20h-166v-135h-20v135h-166l-10 20h166l-90 185h-166l-10 20h166l-166 340h22l166 -340h196l166 340h22zM404 340h-176l88 -181z" />
    <glyph glyph-name="brokenbar" unicode="&#xa6;" 
 />
    <glyph glyph-name="section" unicode="&#xa7;" 
 />
    <glyph glyph-name="dieresis" unicode="&#xa8;" 
 />
    <glyph glyph-name="copyright" unicode="&#xa9;" 
 />
    <glyph glyph-name="guillemotleft" unicode="&#xab;" 
 />
    <glyph glyph-name="logicalnot" unicode="&#xac;" 
 />
    <glyph glyph-name="registered" unicode="&#xae;" 
 />
    <glyph glyph-name="macron" unicode="&#xaf;" 
 />
    <glyph glyph-name="degree" unicode="&#xb0;" 
 />
    <glyph glyph-name="plusminus" unicode="&#xb1;" 
 />
    <glyph glyph-name="acute" unicode="&#xb4;" 
 />
    <glyph glyph-name="paragraph" unicode="&#xb6;" 
 />
    <glyph glyph-name="periodcentered" unicode="&#xb7;" horiz-adv-x="200" 
d="M100 330q-8 0 -14 6t-6 14t6 14t14 6t14 -6t6 -14t-6 -14t-14 -6z" />
    <glyph glyph-name="cedilla" unicode="&#xb8;" 
 />
    <glyph glyph-name="guillemotright" unicode="&#xbb;" 
 />
    <glyph glyph-name="questiondown" unicode="&#xbf;" horiz-adv-x="604" 
 />
    <glyph glyph-name="Agrave" unicode="&#xc0;" horiz-adv-x="649" 
d="M388 683l-79 180h22l78 -180h-21zM325 700l304 -700h-21l-56 127h-455l-55 -127h-22zM543 147l-218 503l-219 -503h437z" />
    <glyph glyph-name="Aacute" unicode="&#xc1;" horiz-adv-x="649" 
d="M340 863l-78 -180h-22l79 180h21zM325 700l304 -700h-21l-56 127h-455l-55 -127h-22zM543 147l-218 503l-219 -503h437z" />
    <glyph glyph-name="Acircumflex" unicode="&#xc2;" horiz-adv-x="649" 
d="M325 887l-119 -55l-6 14l125 58l125 -58l-7 -14zM325 700l304 -700h-21l-56 127h-455l-55 -127h-22zM543 147l-218 503l-219 -503h437z" />
    <glyph glyph-name="Atilde" unicode="&#xc3;" horiz-adv-x="649" 
d="M368 883l-86 -48l-90 51l7 13l83 -46l86 48l89 -50l-7 -13zM325 700l304 -700h-21l-56 127h-455l-55 -127h-22zM543 147l-218 503l-219 -503h437z" />
    <glyph glyph-name="Adieresis" unicode="&#xc4;" horiz-adv-x="649" 
d="M303 855q0 -8 -6 -14t-14 -6t-14 6t-6 14t6 14t14 6t14 -6t6 -14zM386 855q0 -8 -6 -14t-14 -6t-14 6t-6 14t6 14t14 6t14 -6t6 -14zM324 700l305 -700h-22l-55 127h-455l-55 -127h-22zM543 147l-219 503l-218 -503h437z" />
    <glyph glyph-name="Aring" unicode="&#xc5;" horiz-adv-x="649" 
d="M390 831q0 -27 -19 -46t-46 -19t-46 19t-19 46t19 46t46 19t46 -19t19 -46zM275 831q0 -21 14.5 -35.5t35.5 -14.5q20 0 35 14.5t15 35.5q0 20 -15 35t-35 15q-21 0 -35.5 -15t-14.5 -35zM325 700l304 -700h-21l-56 127h-455l-55 -127h-22zM543 147l-218 503l-219 -503
h437z" />
    <glyph glyph-name="AE" unicode="&#xc6;" horiz-adv-x="1201" 
d="M325 700l305 -700h-22l-56 127h-455l-55 -127h-22zM735 680v20h381v-20h-381zM544 147l-219 503l-219 -503h438zM1116 360v-20h-381v20h381zM735 20h381v-20h-381v20z" />
    <glyph glyph-name="Ccedilla" unicode="&#xc7;" horiz-adv-x="730" 
d="M660 605l-13 -15q-45 42 -98 64q-63 26 -129 26q-67 0 -128 -26q-62 -26 -105 -71q-46 -46 -71 -105q-26 -61 -26 -128t26 -128q25 -59 71 -105q43 -45 105 -71q61 -26 128 -26q66 0 129 26q53 22 98 64l13 -15q-100 -94 -235 -95l-16 -33q23 -5 37.5 -23t14.5 -42
q0 -27 -19.5 -46.5t-46.5 -19.5h-58l9 20h49q19 0 32.5 13.5t13.5 32.5t-13.5 32.5t-32.5 13.5h-16l24 52q-139 7 -236 108.5t-97 241.5q0 145 102.5 247.5t247.5 102.5q139 0 240 -95z" />
    <glyph glyph-name="Egrave" unicode="&#xc8;" horiz-adv-x="551" 
d="M224 927h22l64 -148h-21zM85 680v20h381v-20h-381zM466 360v-20h-381v20h381zM85 20h381v-20h-381v20z" />
    <glyph glyph-name="Eacute" unicode="&#xc9;" horiz-adv-x="551" 
d="M265 779l64 148h22l-64 -148h-22zM85 680v20h381v-20h-381zM466 360v-20h-381v20h381zM85 20h381v-20h-381v20z" />
    <glyph glyph-name="Ecircumflex" unicode="&#xca;" horiz-adv-x="551" 
d="M151 846l124 58l125 -58l-6 -14l-119 55l-118 -55zM85 680v20h381v-20h-381zM466 360v-20h-381v20h381zM85 20h381v-20h-381v20z" />
    <glyph glyph-name="Edieresis" unicode="&#xcb;" horiz-adv-x="551" 
d="M241 875q8 0 14 -6t6 -14t-6 -14t-14 -6t-14 6t-6 14t6 14t14 6zM310 875q8 0 14 -6t6 -14t-6 -14t-14 -6t-14 6t-6 14t6 14t14 6zM85 680v20h381v-20h-381zM466 360v-20h-381v20h381zM85 20h381v-20h-381v20z" />
    <glyph glyph-name="Igrave" unicode="&#xcc;" horiz-adv-x="328" 
d="M90 927h22l64 -148h-21zM176 680v-660h52v-20h-124v20h52v660h-52v20h124v-20h-52z" />
    <glyph glyph-name="Iacute" unicode="&#xcd;" horiz-adv-x="329" 
d="M239 927l-65 -148h-22l65 148h22zM152 20v660h-52v20h124v-20h-52v-660h52v-20h-124v20h52z" />
    <glyph glyph-name="Icircumflex" unicode="&#xce;" horiz-adv-x="370" 
d="M185 904l125 -58l-6 -14l-119 55l-119 -55l-6 14zM175 20v660h-52v20h124v-20h-52v-660h52v-20h-124v20h52z" />
    <glyph glyph-name="Idieresis" unicode="&#xcf;" horiz-adv-x="324" 
d="M108 882q0 8 6 14t14 6t14 -6t6 -14t-6 -14t-14 -6t-14 6t-6 14zM176 882q0 8 6 14t14 6t14 -6t6 -14t-6 -14t-14 -6t-14 6t-6 14zM152 20v660h-52v20h124v-20h-52v-660h52v-20h-124v20h52z" />
    <glyph glyph-name="Eth" unicode="&#xd0;" horiz-adv-x="815" 
d="M156 700h249q145 0 247.5 -102.5t102.5 -247.5t-102.5 -247.5t-247.5 -102.5h-249v340h-96v20h96v340zM176 20h229q66 0 129 26q61 27 104 71q47 46 71 105q26 61 26 128t-26 128q-24 59 -71 105q-43 44 -104 71q-63 26 -129 26h-229v-320h96v-20h-96v-320z" />
    <glyph glyph-name="Ntilde" unicode="&#xd1;" horiz-adv-x="664" 
d="M289 853l86 48l90 -50l-8 -13l-82 45l-86 -48l-90 51l8 13zM544 700h20v-700h-20v340l-424 320v-660h-20v700l444 -335v335z" />
    <glyph glyph-name="Ograve" unicode="&#xd2;" horiz-adv-x="820" 
d="M399 779l-64 148h22l64 -148h-22zM410 700q145 0 247.5 -102.5t102.5 -247.5t-102.5 -247.5t-247.5 -102.5t-247.5 102.5t-102.5 247.5t102.5 247.5t247.5 102.5zM644 117q47 47 70 105q26 58 26 128t-26 128q-23 58 -70 105q-45 45 -105 71q-63 26 -129 26
q-67 0 -128 -26q-63 -27 -105 -71q-46 -46 -71 -105q-26 -61 -26 -128t26 -128q25 -59 71 -105q42 -44 105 -71q61 -26 128 -26q66 0 129 26q60 26 105 71z" />
    <glyph glyph-name="Oacute" unicode="&#xd3;" horiz-adv-x="820" 
d="M496 927l-64 -148h-22l65 148h21zM410 700q145 0 247.5 -102.5t102.5 -247.5t-102.5 -247.5t-247.5 -102.5t-247.5 102.5t-102.5 247.5t102.5 247.5t247.5 102.5zM740 350q0 70 -26 128q-23 58 -70 105q-45 45 -105 71q-63 26 -129 26q-67 0 -128 -26q-63 -27 -105 -71
q-46 -46 -71 -105q-26 -61 -26 -128t26 -128q25 -59 71 -105q42 -44 105 -71q61 -26 128 -26q66 0 129 26q60 26 105 71q47 47 70 105q26 58 26 128z" />
    <glyph glyph-name="Ocircumflex" unicode="&#xd4;" horiz-adv-x="820" 
d="M410 887l-119 -55l-6 14l125 58l125 -58l-6 -14zM410 700q145 0 247.5 -102.5t102.5 -247.5t-102.5 -247.5t-247.5 -102.5t-247.5 102.5t-102.5 247.5t102.5 247.5t247.5 102.5zM740 350q0 70 -26 128q-23 58 -70 105q-45 45 -105 71q-63 26 -129 26q-67 0 -128 -26
q-63 -27 -105 -71q-46 -46 -71 -105q-26 -61 -26 -128t26 -128q25 -59 71 -105q42 -44 105 -71q61 -26 128 -26q66 0 129 26q60 26 105 71q47 47 70 105q26 58 26 128z" />
    <glyph glyph-name="Otilde" unicode="&#xd5;" horiz-adv-x="820" 
d="M453 883l-86 -48l-90 51l8 13l82 -46l86 48l90 -50l-8 -13zM410 700q145 0 247.5 -102.5t102.5 -247.5t-102.5 -247.5t-247.5 -102.5t-247.5 102.5t-102.5 247.5t102.5 247.5t247.5 102.5zM740 350q0 70 -26 128q-23 58 -70 105q-45 45 -105 71q-63 26 -129 26
q-67 0 -128 -26q-63 -27 -105 -71q-46 -46 -71 -105q-26 -61 -26 -128t26 -128q25 -59 71 -105q42 -44 105 -71q61 -26 128 -26q66 0 129 26q60 26 105 71q47 47 70 105q26 58 26 128z" />
    <glyph glyph-name="Odieresis" unicode="&#xd6;" horiz-adv-x="820" 
d="M376 831q-8 0 -14 6t-6 14t6 14t14 6t14 -6t6 -14t-6 -14t-14 -6zM444 831q-8 0 -14 6t-6 14t6 14t14 6t14 -6t6 -14t-6 -14t-14 -6zM410 0q-145 0 -247.5 102.5t-102.5 247.5t102.5 247.5t247.5 102.5t247.5 -102.5t102.5 -247.5t-102.5 -247.5t-247.5 -102.5zM80 350
q0 -67 26 -128q25 -59 71 -105q42 -44 105 -71q61 -26 128 -26q66 0 129 26q60 26 105 71q47 47 70 105q26 58 26 128t-26 128q-23 58 -70 105q-45 45 -105 71q-63 26 -129 26q-67 0 -128 -26q-63 -27 -105 -71q-46 -46 -71 -105q-26 -61 -26 -128z" />
    <glyph glyph-name="multiply" unicode="&#xd7;" horiz-adv-x="474" 
d="M394 493l-143 -143l143 -143l-14 -14l-143 143l-143 -143l-14 14l143 143l-143 143l14 14l143 -143l143 143z" />
    <glyph glyph-name="Oslash" unicode="&#xd8;" horiz-adv-x="820" 
d="M760 686l-95 -96q95 -100 95 -240q0 -145 -102.5 -247.5t-247.5 -102.5q-139 0 -240 96l-96 -96l-14 14l96 96q-96 101 -96 240q0 145 102.5 247.5t247.5 102.5q140 0 240 -95l96 95zM170 124l466 466q-40 39 -97 64q-63 26 -129 26q-67 0 -128 -26q-63 -27 -105 -71
q-46 -46 -71 -105q-26 -61 -26 -128t26 -128q24 -55 64 -98zM650 576l-466 -466q39 -38 98 -64q61 -26 128 -26q66 0 129 26q60 26 105 71q47 47 70 105q26 58 26 128t-26 128q-22 55 -64 98z" />
    <glyph glyph-name="Ugrave" unicode="&#xd9;" horiz-adv-x="753" 
d="M312 893l65 -148h22l-65 148h-22zM100 699h20v-422q0 -51 20 -100q18 -44 55 -82q38 -37 82 -55q49 -20 100 -20t99 20q44 18 82 55q37 38 55 82q20 49 20 100v422h20v-422q0 -115 -81 -196t-195 -81q-115 0 -196 81t-81 196v422z" />
    <glyph glyph-name="Uacute" unicode="&#xda;" horiz-adv-x="753" 
d="M452 893l-65 -148h-22l65 148h22zM100 699h20v-422q0 -51 20 -100q18 -44 55 -82q38 -37 82 -55q49 -20 100 -20t99 20q44 18 82 55q37 38 55 82q20 49 20 100v422h20v-422q0 -115 -81 -196t-195 -81q-115 0 -196 81t-81 196v422z" />
    <glyph glyph-name="Ucircumflex" unicode="&#xdb;" horiz-adv-x="753" 
d="M377 887l-119 -55l-6 14l125 58l125 -58l-7 -14zM100 699h20v-422q0 -51 20 -100q18 -44 55 -82q38 -37 82 -55q49 -20 100 -20t99 20q44 18 82 55q37 38 55 82q20 49 20 100v422h20v-422q0 -115 -81 -196t-195 -81q-115 0 -196 81t-81 196v422z" />
    <glyph glyph-name="Udieresis" unicode="&#xdc;" horiz-adv-x="753" 
d="M335 809q-8 0 -14 6t-6 14t6 14t14 6t14 -6t6 -14t-6 -14t-14 -6zM418 809q-8 0 -14 6t-6 14t6 14t14 6t14 -6t6 -14t-6 -14t-14 -6zM100 699h20v-422q0 -51 20 -100q18 -44 55 -82q38 -37 82 -55q49 -20 100 -20t99 20q44 18 82 55q37 38 55 82q20 49 20 100v422h20
v-422q0 -115 -81 -196t-195 -81q-115 0 -196 81t-81 196v422z" />
    <glyph glyph-name="Yacute" unicode="&#xdd;" horiz-adv-x="612" 
d="M570 700h22l-276 -566v-134h-20v134l-276 566h22l264 -541zM416 700h22l-78 -160h-22z" />
    <glyph glyph-name="Thorn" unicode="&#xde;" horiz-adv-x="625" 
d="M120 627h168q115 0 196 -81t81 -196t-81 -196t-196 -81h-168v-73h-20v700h20v-73zM120 93h168q51 0 100 20q44 18 82 55q37 38 55 82q20 49 20 100t-20 100q-18 44 -55 82q-38 37 -82 55q-49 20 -100 20h-168v-514z" />
    <glyph glyph-name="germandbls" unicode="&#xdf;" horiz-adv-x="619" 
d="M100 0v508q0 83 43.5 137.5t122.5 54.5q81 0 131.5 -55.5t50.5 -136.5q0 -42 -16 -82q51 -31 81.5 -83t30.5 -114q0 -95 -67 -162t-162 -67h-132v20h132q41 0 81 16q39 17 67 45t45 67q16 40 16 81q0 39 -16 81q-16 37 -45 67q-15 15 -40 31q-50 -91 -157 -91h-60v20h60
q37 0 67 13q29 14 50 36q45 50 45 122q0 74 -45 122q-21 24 -50 36q-33 14 -67 14q-33 0 -64 -13q-26 -13 -45 -36q-18 -23 -27 -54q-10 -30 -10 -69v-508h-20z" />
    <glyph glyph-name="agrave" unicode="&#xe0;" horiz-adv-x="649" 
d="M388 683l-79 180h22l78 -180h-21zM325 700l304 -700h-21l-56 127h-455l-55 -127h-22zM543 147l-218 503l-219 -503h437z" />
    <glyph glyph-name="aacute" unicode="&#xe1;" horiz-adv-x="649" 
d="M340 863l-78 -180h-22l79 180h21zM325 700l304 -700h-21l-56 127h-455l-55 -127h-22zM543 147l-218 503l-219 -503h437z" />
    <glyph glyph-name="acircumflex" unicode="&#xe2;" horiz-adv-x="649" 
d="M325 887l-119 -55l-6 14l125 58l125 -58l-7 -14zM325 700l304 -700h-21l-56 127h-455l-55 -127h-22zM543 147l-218 503l-219 -503h437z" />
    <glyph glyph-name="atilde" unicode="&#xe3;" horiz-adv-x="649" 
d="M368 883l-86 -48l-90 51l7 13l83 -46l86 48l89 -50l-7 -13zM325 700l304 -700h-21l-56 127h-455l-55 -127h-22zM543 147l-218 503l-219 -503h437z" />
    <glyph glyph-name="adieresis" unicode="&#xe4;" horiz-adv-x="649" 
d="M303 855q0 -8 -6 -14t-14 -6t-14 6t-6 14t6 14t14 6t14 -6t6 -14zM386 855q0 -8 -6 -14t-14 -6t-14 6t-6 14t6 14t14 6t14 -6t6 -14zM324 700l305 -700h-22l-55 127h-455l-55 -127h-22zM543 147l-219 503l-218 -503h437z" />
    <glyph glyph-name="aring" unicode="&#xe5;" horiz-adv-x="649" 
d="M390 831q0 -27 -19 -46t-46 -19t-46 19t-19 46t19 46t46 19t46 -19t19 -46zM275 831q0 -21 14.5 -35.5t35.5 -14.5q20 0 35 14.5t15 35.5q0 20 -15 35t-35 15q-21 0 -35.5 -15t-14.5 -35zM325 700l304 -700h-21l-56 127h-455l-55 -127h-22zM543 147l-218 503l-219 -503
h437z" />
    <glyph glyph-name="ae" unicode="&#xe6;" horiz-adv-x="836" 
d="M97 126l-55 -126h-22l305 700h441v-20h-432l139 -320h293v-20h-284l139 -320h145v-20h-158l-55 126h-456zM106 146h438l-219 504z" />
    <glyph glyph-name="ccedilla" unicode="&#xe7;" horiz-adv-x="730" 
d="M660 605l-13 -15q-45 42 -98 64q-63 26 -129 26q-67 0 -128 -26q-62 -26 -105 -71q-46 -46 -71 -105q-26 -61 -26 -128t26 -128q25 -59 71 -105q43 -45 105 -71q61 -26 128 -26q66 0 129 26q53 22 98 64l13 -15q-100 -94 -235 -95l-16 -33q23 -5 37.5 -23t14.5 -42
q0 -27 -19.5 -46.5t-46.5 -19.5h-58l9 20h49q19 0 32.5 13.5t13.5 32.5t-13.5 32.5t-32.5 13.5h-16l24 52q-139 7 -236 108.5t-97 241.5q0 145 102.5 247.5t247.5 102.5q139 0 240 -95z" />
    <glyph glyph-name="egrave" unicode="&#xe8;" horiz-adv-x="581" 
d="M239 927h22l64 -148h-21zM100 700h381v-20h-361v-320h361v-20h-361v-320h361v-20h-381v700z" />
    <glyph glyph-name="eacute" unicode="&#xe9;" horiz-adv-x="581" 
d="M280 779l64 148h22l-64 -148h-22zM100 700h381v-20h-361v-320h361v-20h-361v-320h361v-20h-381v700z" />
    <glyph glyph-name="ecircumflex" unicode="&#xea;" horiz-adv-x="581" 
d="M166 846l124 58l125 -58l-6 -14l-119 55l-118 -55zM100 700h381v-20h-361v-320h361v-20h-361v-320h361v-20h-381v700z" />
    <glyph glyph-name="edieresis" unicode="&#xeb;" horiz-adv-x="581" 
d="M256 875q8 0 14 -6t6 -14t-6 -14t-14 -6t-14 6t-6 14t6 14t14 6zM325 875q8 0 14 -6t6 -14t-6 -14t-14 -6t-14 6t-6 14t6 14t14 6zM481 0h-381v700h381v-20h-361v-320h361v-20h-361v-320h361v-20z" />
    <glyph glyph-name="igrave" unicode="&#xec;" horiz-adv-x="328" 
d="M90 927h22l64 -148h-21zM176 680v-660h52v-20h-124v20h52v660h-52v20h124v-20h-52z" />
    <glyph glyph-name="iacute" unicode="&#xed;" horiz-adv-x="329" 
d="M239 927l-65 -148h-22l65 148h22zM152 20v660h-52v20h124v-20h-52v-660h52v-20h-124v20h52z" />
    <glyph glyph-name="icircumflex" unicode="&#xee;" horiz-adv-x="370" 
d="M185 904l125 -58l-6 -14l-119 55l-119 -55l-6 14zM175 20v660h-52v20h124v-20h-52v-660h52v-20h-124v20h52z" />
    <glyph glyph-name="idieresis" unicode="&#xef;" horiz-adv-x="324" 
d="M108 882q0 8 6 14t14 6t14 -6t6 -14t-6 -14t-14 -6t-14 6t-6 14zM176 882q0 8 6 14t14 6t14 -6t6 -14t-6 -14t-14 -6t-14 6t-6 14zM152 20v660h-52v20h124v-20h-52v-660h52v-20h-124v20h52z" />
    <glyph glyph-name="eth" unicode="&#xf0;" horiz-adv-x="815" 
d="M156 700h249q145 0 247.5 -102.5t102.5 -247.5t-102.5 -247.5t-247.5 -102.5h-249v340h-96v20h96v340zM176 20h229q66 0 129 26q61 27 104 71q47 46 71 105q26 61 26 128t-26 128q-24 59 -71 105q-43 44 -104 71q-63 26 -129 26h-229v-320h96v-20h-96v-320z" />
    <glyph glyph-name="ntilde" unicode="&#xf1;" horiz-adv-x="664" 
d="M289 853l86 48l90 -50l-8 -13l-82 45l-86 -48l-90 51l8 13zM544 700h20v-700h-20v340l-424 320v-660h-20v700l444 -335v335z" />
    <glyph glyph-name="ograve" unicode="&#xf2;" horiz-adv-x="820" 
d="M399 779l-64 148h22l64 -148h-22zM410 700q145 0 247.5 -102.5t102.5 -247.5t-102.5 -247.5t-247.5 -102.5t-247.5 102.5t-102.5 247.5t102.5 247.5t247.5 102.5zM644 117q47 47 70 105q26 58 26 128t-26 128q-23 58 -70 105q-45 45 -105 71q-63 26 -129 26
q-67 0 -128 -26q-63 -27 -105 -71q-46 -46 -71 -105q-26 -61 -26 -128t26 -128q25 -59 71 -105q42 -44 105 -71q61 -26 128 -26q66 0 129 26q60 26 105 71z" />
    <glyph glyph-name="oacute" unicode="&#xf3;" horiz-adv-x="820" 
d="M496 927l-64 -148h-22l65 148h21zM410 700q145 0 247.5 -102.5t102.5 -247.5t-102.5 -247.5t-247.5 -102.5t-247.5 102.5t-102.5 247.5t102.5 247.5t247.5 102.5zM740 350q0 70 -26 128q-23 58 -70 105q-45 45 -105 71q-63 26 -129 26q-67 0 -128 -26q-63 -27 -105 -71
q-46 -46 -71 -105q-26 -61 -26 -128t26 -128q25 -59 71 -105q42 -44 105 -71q61 -26 128 -26q66 0 129 26q60 26 105 71q47 47 70 105q26 58 26 128z" />
    <glyph glyph-name="ocircumflex" unicode="&#xf4;" horiz-adv-x="820" 
d="M410 887l-119 -55l-6 14l125 58l125 -58l-6 -14zM410 700q145 0 247.5 -102.5t102.5 -247.5t-102.5 -247.5t-247.5 -102.5t-247.5 102.5t-102.5 247.5t102.5 247.5t247.5 102.5zM740 350q0 70 -26 128q-23 58 -70 105q-45 45 -105 71q-63 26 -129 26q-67 0 -128 -26
q-63 -27 -105 -71q-46 -46 -71 -105q-26 -61 -26 -128t26 -128q25 -59 71 -105q42 -44 105 -71q61 -26 128 -26q66 0 129 26q60 26 105 71q47 47 70 105q26 58 26 128z" />
    <glyph glyph-name="otilde" unicode="&#xf5;" horiz-adv-x="820" 
d="M453 883l-86 -48l-90 51l8 13l82 -46l86 48l90 -50l-8 -13zM410 700q145 0 247.5 -102.5t102.5 -247.5t-102.5 -247.5t-247.5 -102.5t-247.5 102.5t-102.5 247.5t102.5 247.5t247.5 102.5zM740 350q0 70 -26 128q-23 58 -70 105q-45 45 -105 71q-63 26 -129 26
q-67 0 -128 -26q-63 -27 -105 -71q-46 -46 -71 -105q-26 -61 -26 -128t26 -128q25 -59 71 -105q42 -44 105 -71q61 -26 128 -26q66 0 129 26q60 26 105 71q47 47 70 105q26 58 26 128z" />
    <glyph glyph-name="odieresis" unicode="&#xf6;" horiz-adv-x="820" 
d="M376 831q-8 0 -14 6t-6 14t6 14t14 6t14 -6t6 -14t-6 -14t-14 -6zM444 831q-8 0 -14 6t-6 14t6 14t14 6t14 -6t6 -14t-6 -14t-14 -6zM410 0q-145 0 -247.5 102.5t-102.5 247.5t102.5 247.5t247.5 102.5t247.5 -102.5t102.5 -247.5t-102.5 -247.5t-247.5 -102.5zM80 350
q0 -67 26 -128q25 -59 71 -105q42 -44 105 -71q61 -26 128 -26q66 0 129 26q60 26 105 71q47 47 70 105q26 58 26 128t-26 128q-23 58 -70 105q-45 45 -105 71q-63 26 -129 26q-67 0 -128 -26q-63 -27 -105 -71q-46 -46 -71 -105q-26 -61 -26 -128z" />
    <glyph glyph-name="divide" unicode="&#xf7;" horiz-adv-x="554" 
d="M297 503q0 -8 -6 -14t-14 -6t-14 6t-6 14t6 14t14 6t14 -6t6 -14zM80 360h394v-20h-394v20zM277 217q8 0 14 -6t6 -14t-6 -14t-14 -6t-14 6t-6 14t6 14t14 6z" />
    <glyph glyph-name="oslash" unicode="&#xf8;" horiz-adv-x="820" 
d="M760 686l-95 -96q95 -100 95 -240q0 -145 -102.5 -247.5t-247.5 -102.5q-139 0 -240 96l-96 -96l-14 14l96 96q-96 101 -96 240q0 145 102.5 247.5t247.5 102.5q140 0 240 -95l96 95zM170 124l466 466q-40 39 -97 64q-63 26 -129 26q-67 0 -128 -26q-63 -27 -105 -71
q-46 -46 -71 -105q-26 -61 -26 -128t26 -128q24 -55 64 -98zM650 576l-466 -466q39 -38 98 -64q61 -26 128 -26q66 0 129 26q60 26 105 71q47 47 70 105q26 58 26 128t-26 128q-22 55 -64 98z" />
    <glyph glyph-name="ugrave" unicode="&#xf9;" horiz-adv-x="753" 
d="M312 893l65 -148h22l-65 148h-22zM100 699h20v-422q0 -51 20 -100q18 -44 55 -82q38 -37 82 -55q49 -20 100 -20t99 20q44 18 82 55q37 38 55 82q20 49 20 100v422h20v-422q0 -115 -81 -196t-195 -81q-115 0 -196 81t-81 196v422z" />
    <glyph glyph-name="uacute" unicode="&#xfa;" horiz-adv-x="753" 
d="M452 893l-65 -148h-22l65 148h22zM100 699h20v-422q0 -51 20 -100q18 -44 55 -82q38 -37 82 -55q49 -20 100 -20t99 20q44 18 82 55q37 38 55 82q20 49 20 100v422h20v-422q0 -115 -81 -196t-195 -81q-115 0 -196 81t-81 196v422z" />
    <glyph glyph-name="ucircumflex" unicode="&#xfb;" horiz-adv-x="753" 
d="M377 887l-119 -55l-6 14l125 58l125 -58l-7 -14zM100 699h20v-422q0 -51 20 -100q18 -44 55 -82q38 -37 82 -55q49 -20 100 -20t99 20q44 18 82 55q37 38 55 82q20 49 20 100v422h20v-422q0 -115 -81 -196t-195 -81q-115 0 -196 81t-81 196v422z" />
    <glyph glyph-name="udieresis" unicode="&#xfc;" horiz-adv-x="753" 
d="M335 809q-8 0 -14 6t-6 14t6 14t14 6t14 -6t6 -14t-6 -14t-14 -6zM418 809q-8 0 -14 6t-6 14t6 14t14 6t14 -6t6 -14t-6 -14t-14 -6zM100 699h20v-422q0 -51 20 -100q18 -44 55 -82q38 -37 82 -55q49 -20 100 -20t99 20q44 18 82 55q37 38 55 82q20 49 20 100v422h20
v-422q0 -115 -81 -196t-195 -81q-115 0 -196 81t-81 196v422z" />
    <glyph glyph-name="yacute" unicode="&#xfd;" horiz-adv-x="612" 
d="M570 700h22l-276 -566v-134h-20v134l-276 566h22l264 -541zM416 700h22l-78 -160h-22z" />
    <glyph glyph-name="thorn" unicode="&#xfe;" horiz-adv-x="625" 
d="M120 627h168q115 0 196 -81t81 -196t-81 -196t-196 -81h-168v-73h-20v700h20v-73zM120 93h168q51 0 100 20q44 18 82 55q37 38 55 82q20 49 20 100t-20 100q-18 44 -55 82q-38 37 -82 55q-49 20 -100 20h-168v-514z" />
    <glyph glyph-name="ydieresis" unicode="&#xff;" horiz-adv-x="612" 
d="M264 809q-8 0 -14 6t-6 14t6 14t14 6t14 -6t6 -14t-6 -14t-14 -6zM348 809q-8 0 -14 6t-6 14t6 14t14 6t14 -6t6 -14t-6 -14t-14 -6zM570 700h22l-276 -566v-134h-20v134l-276 566h22l264 -541z" />
    <glyph glyph-name="Amacron" unicode="&#x100;" horiz-adv-x="650" 
d="M380 822h-110v15h110v-15zM325 700l305 -700h-22l-56 127h-455l-55 -127h-22zM544 147l-219 503l-219 -503h438z" />
    <glyph glyph-name="amacron" unicode="&#x101;" horiz-adv-x="650" 
d="M380 822h-110v15h110v-15zM325 700l305 -700h-22l-56 127h-455l-55 -127h-22zM544 147l-219 503l-219 -503h438z" />
    <glyph glyph-name="Abreve" unicode="&#x102;" horiz-adv-x="649" 
d="M379 863h20q0 -31 -21.5 -52.5t-52.5 -21.5t-52.5 21.5t-21.5 52.5h20q0 -23 15.5 -38.5t38.5 -15.5t38.5 15.5t15.5 38.5zM325 700l304 -700h-21l-56 127h-455l-55 -127h-22zM543 147l-218 503l-219 -503h437z" />
    <glyph glyph-name="abreve" unicode="&#x103;" horiz-adv-x="649" 
d="M379 863h20q0 -31 -21.5 -52.5t-52.5 -21.5t-52.5 21.5t-21.5 52.5h20q0 -23 15.5 -38.5t38.5 -15.5t38.5 15.5t15.5 38.5zM325 700l304 -700h-21l-56 127h-455l-55 -127h-22zM543 147l-218 503l-219 -503h437z" />
    <glyph glyph-name="Aogonek" unicode="&#x104;" horiz-adv-x="650" 
d="M325 700l305 -700h-22l-55 127h-455l-56 -127h-22zM544 147l-219 503l-219 -503h438zM337 0l-29 -75q-2 -5 -2 -14q0 -20 13.5 -33.5t32.5 -13.5h50v-20h-50q-28 0 -47 19.5t-19 47.5q0 11 3 20v1l27 68h21z" />
    <glyph glyph-name="aogonek" unicode="&#x105;" horiz-adv-x="650" 
d="M325 700l305 -700h-22l-55 127h-455l-56 -127h-22zM544 147l-219 503l-219 -503h438zM337 0l-29 -75q-2 -5 -2 -14q0 -20 13.5 -33.5t32.5 -13.5h50v-20h-50q-28 0 -47 19.5t-19 47.5q0 11 3 20v1l27 68h21z" />
    <glyph glyph-name="Cacute" unicode="&#x106;" horiz-adv-x="730" 
d="M408 779l64 148h22l-64 -148h-22zM647 110l13 -15q-101 -95 -240 -95q-145 0 -247.5 102.5t-102.5 247.5t102.5 247.5t247.5 102.5q139 0 240 -95l-13 -15q-45 42 -98 64q-63 26 -129 26q-67 0 -128 -26q-62 -26 -105 -71q-46 -46 -71 -105q-26 -61 -26 -128t26 -128
q25 -59 71 -105q43 -45 105 -71q61 -26 128 -26q66 0 129 26q53 22 98 64z" />
    <glyph glyph-name="cacute" unicode="&#x107;" horiz-adv-x="730" 
d="M408 779l64 148h22l-64 -148h-22zM647 110l13 -15q-101 -95 -240 -95q-145 0 -247.5 102.5t-102.5 247.5t102.5 247.5t247.5 102.5q139 0 240 -95l-13 -15q-45 42 -98 64q-63 26 -129 26q-67 0 -128 -26q-62 -26 -105 -71q-46 -46 -71 -105q-26 -61 -26 -128t26 -128
q25 -59 71 -105q43 -45 105 -71q61 -26 128 -26q66 0 129 26q53 22 98 64z" />
    <glyph glyph-name="Cdotaccent" unicode="&#x10a;" horiz-adv-x="730" 
d="M422 849q8 0 14 -6t6 -14t-6 -14t-14 -6t-14 6t-6 14t6 14t14 6zM647 110l13 -15q-101 -95 -240 -95q-145 0 -247.5 102.5t-102.5 247.5t102.5 247.5t247.5 102.5q139 0 240 -95l-13 -15q-45 42 -98 64q-63 26 -129 26q-67 0 -128 -26q-62 -26 -105 -71q-46 -46 -71 -105
q-26 -61 -26 -128t26 -128q25 -59 71 -105q43 -45 105 -71q61 -26 128 -26q66 0 129 26q53 22 98 64z" />
    <glyph glyph-name="cdotaccent" unicode="&#x10b;" horiz-adv-x="730" 
d="M422 849q8 0 14 -6t6 -14t-6 -14t-14 -6t-14 6t-6 14t6 14t14 6zM647 110l13 -15q-101 -95 -240 -95q-145 0 -247.5 102.5t-102.5 247.5t102.5 247.5t247.5 102.5q139 0 240 -95l-13 -15q-45 42 -98 64q-63 26 -129 26q-67 0 -128 -26q-62 -26 -105 -71q-46 -46 -71 -105
q-26 -61 -26 -128t26 -128q25 -59 71 -105q43 -45 105 -71q61 -26 128 -26q66 0 129 26q53 22 98 64z" />
    <glyph glyph-name="Ccaron" unicode="&#x10c;" horiz-adv-x="730" 
d="M536 880l-12 12l-101 -92l-100 92l-12 -12l112 -103zM660 95l-13 15q-45 -42 -98 -64q-63 -26 -129 -26q-67 0 -128 26q-62 26 -105 71q-46 46 -71 105q-26 61 -26 128t26 128q25 59 71 105q43 45 105 71q61 26 128 26q66 0 129 -26q53 -22 98 -64l13 15q-101 95 -240 95
q-145 0 -247.5 -102.5t-102.5 -247.5t102.5 -247.5t247.5 -102.5q139 0 240 95z" />
    <glyph glyph-name="ccaron" unicode="&#x10d;" horiz-adv-x="730" 
d="M423 810l-112 103l11 13l101 -93l101 93l11 -13zM660 605l-13 -15q-45 42 -98 64q-63 26 -129 26q-67 0 -128 -26q-62 -26 -105 -71q-46 -46 -71 -105q-26 -61 -26 -128t26 -128q25 -59 71 -105q43 -45 105 -71q61 -26 128 -26q66 0 129 26q53 22 98 64l13 -15
q-101 -95 -240 -95q-145 0 -247.5 102.5t-102.5 247.5t102.5 247.5t247.5 102.5q139 0 240 -95z" />
    <glyph glyph-name="Dcaron" unicode="&#x10e;" horiz-adv-x="759" 
d="M349 810l-112 103l12 13l100 -93l101 93l11 -13zM100 700v-700h249q145 0 247.5 102.5t102.5 247.5t-102.5 247.5t-247.5 102.5h-249zM120 680h229q66 0 129 -26q61 -27 104 -71q47 -46 71 -105q26 -61 26 -128t-26 -128q-24 -59 -71 -105q-43 -44 -104 -71
q-63 -26 -129 -26h-229v660z" />
    <glyph glyph-name="dcaron" unicode="&#x10f;" horiz-adv-x="759" 
d="M349 810l-112 103l12 13l100 -93l101 93l11 -13zM100 700v-700h249q145 0 247.5 102.5t102.5 247.5t-102.5 247.5t-247.5 102.5h-249zM120 680h229q66 0 129 -26q61 -27 104 -71q47 -46 71 -105q26 -61 26 -128t-26 -128q-24 -59 -71 -105q-43 -44 -104 -71
q-63 -26 -129 -26h-229v660z" />
    <glyph glyph-name="Dcroat" unicode="&#x110;" horiz-adv-x="815" 
d="M156 700h249q145 0 247.5 -102.5t102.5 -247.5t-102.5 -247.5t-247.5 -102.5h-249v340h-96v20h96v340zM176 20h229q66 0 129 26q61 27 104 71q47 46 71 105q26 61 26 128t-26 128q-24 59 -71 105q-43 44 -104 71q-63 26 -129 26h-229v-320h96v-20h-96v-320z" />
    <glyph glyph-name="dcroat" unicode="&#x111;" horiz-adv-x="815" 
d="M156 700h249q145 0 247.5 -102.5t102.5 -247.5t-102.5 -247.5t-247.5 -102.5h-249v340h-96v20h96v340zM176 20h229q66 0 129 26q61 27 104 71q47 46 71 105q26 61 26 128t-26 128q-24 59 -71 105q-43 44 -104 71q-63 26 -129 26h-229v-320h96v-20h-96v-320z" />
    <glyph glyph-name="Emacron" unicode="&#x112;" horiz-adv-x="551" 
d="M331 822h-111v15h111v-15zM85 680v20h381v-20h-381zM466 360v-20h-381v20h381zM85 20h381v-20h-381v20z" />
    <glyph glyph-name="emacron" unicode="&#x113;" horiz-adv-x="581" 
d="M346 822h-111v15h111v-15zM100 700h381v-20h-361v-320h361v-20h-361v-320h361v-20h-381v700z" />
    <glyph glyph-name="Edotaccent" unicode="&#x116;" horiz-adv-x="551" 
d="M295 829h1q-2 -20 -21 -20q-8 0 -13.5 6t-5.5 14t5.5 14t13.5 6t14 -6t6 -14zM85 680v20h381v-20h-381zM466 360v-20h-381v20h381zM85 20h381v-20h-381v20z" />
    <glyph glyph-name="edotaccent" unicode="&#x117;" horiz-adv-x="581" 
d="M310 829h1q-2 -20 -21 -20q-8 0 -13.5 6t-5.5 14t5.5 14t13.5 6t14 -6t6 -14zM481 0h-381v700h381v-20h-361v-320h361v-20h-361v-320h361v-20z" />
    <glyph glyph-name="Eogonek" unicode="&#x118;" horiz-adv-x="580" 
d="M80 700h381v-20h-381v20zM461 360v-20h-381v20h381zM520 -136v-20h-52q-28 0 -47 19.5t-19 47.5q0 9 3 20l27 69h-352v20h381l-37 -96q-2 -4 -2 -13q0 -19 13.5 -33t32.5 -14h52z" />
    <glyph glyph-name="eogonek" unicode="&#x119;" horiz-adv-x="620" 
d="M482 20l-38 -96q-2 -8 -2 -14q0 -19 13.5 -32.5t32.5 -13.5h52v-20h-52q-27 0 -46.5 19.5t-19.5 46.5q0 10 3 21h1l26 69h-352v700h381v-20h-361v-320h361v-20h-361v-320h362z" />
    <glyph glyph-name="Ecaron" unicode="&#x11a;" horiz-adv-x="551" 
d="M276 810l-113 103l12 13l101 -93l100 93l12 -13zM85 680v20h381v-20h-381zM466 360v-20h-381v20h381zM85 20h381v-20h-381v20z" />
    <glyph glyph-name="ecaron" unicode="&#x11b;" horiz-adv-x="581" 
d="M291 810l-113 103l12 13l101 -93l100 93l12 -13zM100 700h381v-20h-361v-320h361v-20h-361v-320h361v-20h-381v700z" />
    <glyph glyph-name="Gbreve" unicode="&#x11e;" horiz-adv-x="809" 
d="M330 863h20q0 -22 16 -38t39 -16q22 0 38 16t16 38h20q0 -31 -22 -52.5t-52 -21.5q-31 0 -53 21.5t-22 52.5zM734 109l-39 39q-48 -69 -123 -108.5t-162 -39.5q-145 0 -247.5 102.5t-102.5 247.5t102.5 247.5t247.5 102.5q139 0 240 -95l-14 -15q-43 42 -98 64
q-63 26 -128 26q-66 0 -129 -26q-60 -26 -105 -71q-47 -47 -70 -105q-26 -58 -26 -128t26 -128q23 -58 70 -105q45 -45 105 -71q63 -26 129 -26q65 0 128 26q63 27 105 71q23 23 38 45l-190 188h28l230 -227z" />
    <glyph glyph-name="gbreve" unicode="&#x11f;" horiz-adv-x="809" 
d="M330 863h20q0 -22 16 -38t39 -16q22 0 38 16t16 38h20q0 -31 -22 -52.5t-52 -21.5q-31 0 -53 21.5t-22 52.5zM734 109l-39 39q-48 -69 -123 -108.5t-162 -39.5q-145 0 -247.5 102.5t-102.5 247.5t102.5 247.5t247.5 102.5q139 0 240 -95l-14 -15q-43 42 -98 64
q-63 26 -128 26q-66 0 -129 -26q-60 -26 -105 -71q-47 -47 -70 -105q-26 -58 -26 -128t26 -128q23 -58 70 -105q45 -45 105 -71q63 -26 129 -26q65 0 128 26q63 27 105 71q23 23 38 45l-190 188h28l230 -227z" />
    <glyph glyph-name="Gdotaccent" unicode="&#x120;" horiz-adv-x="809" 
d="M430 829q0 -8 -6 -14t-14 -6t-14 6t-6 14t6 14t14 6t14 -6t6 -14zM734 109l-39 39q-48 -69 -123 -108.5t-162 -39.5q-145 0 -247.5 102.5t-102.5 247.5t102.5 247.5t247.5 102.5q139 0 240 -95l-14 -15q-43 42 -98 64q-63 26 -128 26q-66 0 -129 -26q-60 -26 -105 -71
q-47 -47 -70 -105q-26 -58 -26 -128t26 -128q23 -58 70 -105q45 -45 105 -71q63 -26 129 -26q65 0 128 26q63 27 105 71q23 23 38 45l-190 188h28l230 -227z" />
    <glyph glyph-name="gdotaccent" unicode="&#x121;" horiz-adv-x="809" 
d="M430 829q0 -8 -6 -14t-14 -6t-14 6t-6 14t6 14t14 6t14 -6t6 -14zM734 109l-39 39q-48 -69 -123 -108.5t-162 -39.5q-145 0 -247.5 102.5t-102.5 247.5t102.5 247.5t247.5 102.5q139 0 240 -95l-14 -15q-43 42 -98 64q-63 26 -128 26q-66 0 -129 -26q-60 -26 -105 -71
q-47 -47 -70 -105q-26 -58 -26 -128t26 -128q23 -58 70 -105q45 -45 105 -71q63 -26 129 -26q65 0 128 26q63 27 105 71q23 23 38 45l-190 188h28l230 -227z" />
    <glyph glyph-name="Gcommaaccent" unicode="&#x122;" horiz-adv-x="809" 
d="M650 605l-14 -15q-43 42 -98 64q-63 26 -128 26q-66 0 -129 -26q-60 -26 -105 -71q-47 -47 -70 -105q-26 -58 -26 -128t26 -128q23 -58 70 -105q45 -45 105 -71q63 -26 129 -26q65 0 128 26q63 27 105 71q23 23 38 45l-190 188h28l230 -227l-15 -14l-39 39
q-47 -68 -120.5 -107.5t-159.5 -40.5v-109h-20v109q-140 6 -237.5 107.5t-97.5 242.5q0 145 102.5 247.5t247.5 102.5q139 0 240 -95z" />
    <glyph glyph-name="gcommaaccent" unicode="&#x123;" horiz-adv-x="809" 
d="M650 605l-14 -15q-43 42 -98 64q-63 26 -128 26q-66 0 -129 -26q-60 -26 -105 -71q-47 -47 -70 -105q-26 -58 -26 -128t26 -128q23 -58 70 -105q45 -45 105 -71q63 -26 129 -26q65 0 128 26q63 27 105 71q23 23 38 45l-190 188h28l230 -227l-15 -14l-39 39
q-47 -68 -120.5 -107.5t-159.5 -40.5v-109h-20v109q-140 6 -237.5 107.5t-97.5 242.5q0 145 102.5 247.5t247.5 102.5q139 0 240 -95z" />
    <glyph glyph-name="Hbar" unicode="&#x126;" horiz-adv-x="664" 
d="M544 700h20v-700h-20v127h-424v-127h-20v700h20v-267h424v267zM544 413h-424v-266h424v266z" />
    <glyph glyph-name="hbar" unicode="&#x127;" horiz-adv-x="664" 
d="M544 700h20v-700h-20v127h-424v-127h-20v700h20v-267h424v267zM544 413h-424v-266h424v266z" />
    <glyph glyph-name="Imacron" unicode="&#x12a;" horiz-adv-x="324" 
d="M100 837h124v-15h-124v15zM152 20v660h-52v20h124v-20h-52v-660h52v-20h-124v20h52z" />
    <glyph glyph-name="imacron" unicode="&#x12b;" horiz-adv-x="324" 
d="M100 837h124v-15h-124v15zM152 20v660h-52v20h124v-20h-52v-660h52v-20h-124v20h52z" />
    <glyph glyph-name="Iogonek" unicode="&#x12e;" horiz-adv-x="326" 
d="M216 0l-47 -120q-2 -4 -2 -14q0 -19 13.5 -32.5t32.5 -13.5h83l-8 -20h-75q-28 0 -47 19.5t-19 46.5q0 10 3 21l44 113h-94v20h52v660h-52v20h124v-20h-52v-660h52z" />
    <glyph glyph-name="iogonek" unicode="&#x12f;" horiz-adv-x="326" 
d="M216 0l-47 -120q-2 -4 -2 -14q0 -19 13.5 -32.5t32.5 -13.5h83l-8 -20h-75q-28 0 -47 19.5t-19 46.5q0 10 3 21l44 113h-94v20h52v660h-52v20h124v-20h-52v-660h52z" />
    <glyph glyph-name="Idotaccent" unicode="&#x130;" horiz-adv-x="324" 
d="M142 829q0 8 6 14t14 6t14 -6t6 -14t-6 -14t-14 -6t-14 6t-6 14zM152 20v660h-52v20h124v-20h-52v-660h52v-20h-124v20h52z" />
    <glyph glyph-name="dotlessi" unicode="&#x131;" 
 />
    <glyph glyph-name="IJ" unicode="&#x132;" horiz-adv-x="968" 
d="M182 680v-660h52v-20h-124v20h52v660h-52v20h124v-20h-52zM868 700v-468q0 -96 -68 -164t-164 -68t-164 68t-68 164h20q0 -41 17 -83q16 -37 45 -67q32 -31 68 -45q40 -17 82 -17q43 0 83 17q37 15 67 45q29 29 46 67q16 39 16 83v448h-212l9 20h223z" />
    <glyph glyph-name="ij" unicode="&#x133;" horiz-adv-x="889" 
 />
    <glyph glyph-name="Kcommaaccent" unicode="&#x136;" horiz-adv-x="666" 
d="M120 700v-636l442 636h24l-221 -318l200 -382h-22l-191 363l-252 -363v700h20zM353 57v-150h-20v188z" />
    <glyph glyph-name="kcommaaccent" unicode="&#x137;" horiz-adv-x="666" 
d="M120 700v-636l442 636h24l-221 -318l200 -382h-22l-191 363l-252 -363v700h20zM353 57v-150h-20v188z" />
    <glyph glyph-name="Lacute" unicode="&#x139;" horiz-adv-x="566" 
d="M122 779h-22l65 148h21zM481 0h-381v700h20v-680h361v-20z" />
    <glyph glyph-name="lacute" unicode="&#x13a;" horiz-adv-x="566" 
d="M122 779h-22l65 148h21zM481 0h-381v700h20v-680h361v-20z" />
    <glyph glyph-name="Lcommaaccent" unicode="&#x13b;" horiz-adv-x="566" 
d="M441 -108h-20l33 108h-354v700h20v-680h361z" />
    <glyph glyph-name="lcommaaccent" unicode="&#x13c;" horiz-adv-x="566" 
d="M441 -108h-20l33 108h-354v700h20v-680h361z" />
    <glyph glyph-name="Lcaron" unicode="&#x13d;" horiz-adv-x="566" 
d="M481 20h-361v680h-20v-700h381v20z" />
    <glyph glyph-name="lcaron" unicode="&#x13e;" horiz-adv-x="566" 
d="M481 0h-381v700h20v-680h361v-20zM245 700v-148h-20v148h20z" />
    <glyph glyph-name="Ldot" unicode="&#x13f;" horiz-adv-x="566" 
d="M481 0h-381v700h20v-680h361v-20zM313 382q8 0 14 -6t6 -14t-6 -14t-14 -6t-14 6t-6 14t6 14t14 6z" />
    <glyph glyph-name="ldot" unicode="&#x140;" horiz-adv-x="566" 
d="M481 0h-381v700h20v-680h361v-20zM313 382q8 0 14 -6t6 -14t-6 -14t-14 -6t-14 6t-6 14t6 14t14 6z" />
    <glyph glyph-name="Lslash" unicode="&#x141;" horiz-adv-x="646" 
d="M200 20h361v-20h-381v338l-120 -92v26l120 92v336h20v-321l119 92v-26l-119 -91v-334z" />
    <glyph glyph-name="lslash" unicode="&#x142;" horiz-adv-x="646" 
d="M200 20h361v-20h-381v338l-120 -92v26l120 92v336h20v-321l119 92v-26l-119 -91v-334z" />
    <glyph glyph-name="Nacute" unicode="&#x143;" horiz-adv-x="664" 
d="M321 779l65 148h22l-65 -148h-22zM544 700h20v-700h-20v340l-424 320v-660h-20v700l444 -335v335z" />
    <glyph glyph-name="nacute" unicode="&#x144;" horiz-adv-x="664" 
d="M321 779l65 148h22l-65 -148h-22zM544 700h20v-700h-20v340l-424 320v-660h-20v700l444 -335v335z" />
    <glyph glyph-name="Ncommaaccent" unicode="&#x145;" horiz-adv-x="664" 
d="M544 700h20v-700h-20v340l-424 320v-660h-20v700l444 -335v335zM312 -88v149l20 -18v-131h-20z" />
    <glyph glyph-name="ncommaaccent" unicode="&#x146;" horiz-adv-x="664" 
d="M544 700h20v-700h-20v340l-424 320v-660h-20v700l444 -335v335zM312 -88v149l20 -18v-131h-20z" />
    <glyph glyph-name="Ncaron" unicode="&#x147;" horiz-adv-x="664" 
d="M332 810l-112 103l11 13l101 -93l101 93l11 -13zM544 700h20v-700h-20v340l-424 320v-660h-20v700l444 -335v335z" />
    <glyph glyph-name="ncaron" unicode="&#x148;" horiz-adv-x="664" 
d="M332 810l-112 103l11 13l101 -93l101 93l11 -13zM544 700h20v-700h-20v340l-424 320v-660h-20v700l444 -335v335z" />
    <glyph glyph-name="Eng" unicode="&#x14a;" horiz-adv-x="664" 
d="M564 700v-738q0 -55 -38.5 -93.5t-93.5 -38.5v20q46 0 79 33t33 79v378l-424 320v-660h-20v700l444 -335v335h20z" />
    <glyph glyph-name="eng" unicode="&#x14b;" horiz-adv-x="664" 
d="M564 700v-738q0 -55 -38.5 -93.5t-93.5 -38.5v20q46 0 79 33t33 79v378l-424 320v-660h-20v700l444 -335v335h20z" />
    <glyph glyph-name="Omacron" unicode="&#x14c;" horiz-adv-x="820" 
d="M465 822h-110v15h110v-15zM410 700q145 0 247.5 -102.5t102.5 -247.5t-102.5 -247.5t-247.5 -102.5t-247.5 102.5t-102.5 247.5t102.5 247.5t247.5 102.5zM740 350q0 70 -26 128q-23 58 -70 105q-45 45 -105 71q-63 26 -129 26q-67 0 -128 -26q-63 -27 -105 -71
q-46 -46 -71 -105q-26 -61 -26 -128t26 -128q25 -59 71 -105q42 -44 105 -71q61 -26 128 -26q66 0 129 26q60 26 105 71q47 47 70 105q26 58 26 128z" />
    <glyph glyph-name="omacron" unicode="&#x14d;" horiz-adv-x="820" 
d="M465 822h-110v15h110v-15zM410 700q145 0 247.5 -102.5t102.5 -247.5t-102.5 -247.5t-247.5 -102.5t-247.5 102.5t-102.5 247.5t102.5 247.5t247.5 102.5zM740 350q0 70 -26 128q-23 58 -70 105q-45 45 -105 71q-63 26 -129 26q-67 0 -128 -26q-63 -27 -105 -71
q-46 -46 -71 -105q-26 -61 -26 -128t26 -128q25 -59 71 -105q42 -44 105 -71q61 -26 128 -26q66 0 129 26q60 26 105 71q47 47 70 105q26 58 26 128z" />
    <glyph glyph-name="Ohungarumlaut" unicode="&#x150;" horiz-adv-x="820" 
d="M350 746l64 148h22l-64 -148h-22zM456 746l64 148h22l-64 -148h-22zM760 350q0 -145 -102.5 -247.5t-247.5 -102.5t-247.5 102.5t-102.5 247.5t102.5 247.5t247.5 102.5t247.5 -102.5t102.5 -247.5zM177 117q42 -44 105 -71q61 -26 128 -26q66 0 129 26q60 26 105 71
q47 47 70 105q26 58 26 128t-26 128q-23 58 -70 105q-45 45 -105 71q-63 26 -129 26q-67 0 -128 -26q-63 -27 -105 -71q-46 -46 -71 -105q-26 -61 -26 -128t26 -128q25 -59 71 -105z" />
    <glyph glyph-name="ohungarumlaut" unicode="&#x151;" horiz-adv-x="820" 
d="M350 746l64 148h22l-64 -148h-22zM456 746l64 148h22l-64 -148h-22zM760 350q0 -145 -102.5 -247.5t-247.5 -102.5t-247.5 102.5t-102.5 247.5t102.5 247.5t247.5 102.5t247.5 -102.5t102.5 -247.5zM177 117q42 -44 105 -71q61 -26 128 -26q66 0 129 26q60 26 105 71
q47 47 70 105q26 58 26 128t-26 128q-23 58 -70 105q-45 45 -105 71q-63 26 -129 26q-67 0 -128 -26q-63 -27 -105 -71q-46 -46 -71 -105q-26 -61 -26 -128t26 -128q25 -59 71 -105z" />
    <glyph glyph-name="OE" unicode="&#x152;" horiz-adv-x="1371" 
d="M410 700q145 0 247.5 -102.5t102.5 -247.5t-102.5 -247.5t-247.5 -102.5t-247.5 102.5t-102.5 247.5t102.5 247.5t247.5 102.5zM905 680v20h381v-20h-381zM410 680q-67 0 -128 -26q-63 -27 -105 -71q-46 -46 -71 -105q-26 -61 -26 -128t26 -128q25 -59 71 -105
q42 -44 105 -71q61 -26 128 -26q66 0 129 26q60 26 105 71q47 47 70 105q26 58 26 128t-26 128q-23 58 -70 105q-45 45 -105 71q-63 26 -129 26zM410 370q8 0 14 -6t6 -14t-6 -14t-14 -6t-14 6t-6 14t6 14t14 6zM1286 360v-20h-381v20h381zM905 20h381v-20h-381v20z" />
    <glyph glyph-name="oe" unicode="&#x153;" horiz-adv-x="851" 
d="M781 0h-381q-145 0 -247.5 102.5t-102.5 247.5t102.5 247.5t247.5 102.5h381v-20h-361v-320h361v-20h-361v-320h361v-20zM400 20v660q-67 0 -128 -26q-63 -27 -105 -71q-46 -46 -71 -105q-26 -61 -26 -128t26 -128q25 -59 71 -105q42 -44 105 -71q61 -26 128 -26z" />
    <glyph glyph-name="Racute" unicode="&#x154;" horiz-adv-x="662" 
d="M389 927l-64 -148h-22l64 148h22zM100 700h201q121 0 206 -85t85 -206q0 -91 -51 -164.5t-132 -105.5l87 -139h-24l-179 287h23l82 -131l8 3q49 19 86 58q38 38 59 86q21 51 21 106t-21 105q-21 49 -59 87q-37 37 -86 58q-50 21 -105 21h-181v-680h-20v700z" />
    <glyph glyph-name="racute" unicode="&#x155;" horiz-adv-x="662" 
d="M389 927l-64 -148h-22l64 148h22zM100 700h201q121 0 206 -85t85 -206q0 -91 -51 -164.5t-132 -105.5l87 -139h-24l-179 287h23l82 -131l8 3q49 19 86 58q38 38 59 86q21 51 21 106t-21 105q-21 49 -59 87q-37 37 -86 58q-50 21 -105 21h-181v-680h-20v700z" />
    <glyph glyph-name="Rcommaaccent" unicode="&#x156;" horiz-adv-x="662" 
d="M100 700h201q121 0 206 -85t85 -206q0 -91 -51 -164.5t-132 -105.5l87 -139h-24l-179 287h23l82 -131l8 3q49 19 86 58q38 38 59 86q21 51 21 106t-21 105q-21 49 -59 87q-37 37 -86 58q-50 21 -105 21h-181v-680h-20v700zM296 43v-131h-20v163z" />
    <glyph glyph-name="rcommaaccent" unicode="&#x157;" horiz-adv-x="662" 
d="M100 700h201q121 0 206 -85t85 -206q0 -91 -51 -164.5t-132 -105.5l87 -139h-24l-179 287h23l82 -131l8 3q49 19 86 58q38 38 59 86q21 51 21 106t-21 105q-21 49 -59 87q-37 37 -86 58q-50 21 -105 21h-181v-680h-20v700zM296 43v-131h-20v163z" />
    <glyph glyph-name="Rcaron" unicode="&#x158;" horiz-adv-x="662" 
d="M301 833l101 93l11 -13l-112 -103l-112 103l11 13zM100 700h201q121 0 206 -85t85 -206q0 -91 -51 -164.5t-132 -105.5l87 -139h-24l-179 287h23l82 -131l8 3q49 19 86 58q38 38 59 86q21 51 21 106t-21 105q-21 49 -59 87q-37 37 -86 58q-50 21 -105 21h-181v-680h-20
v700z" />
    <glyph glyph-name="rcaron" unicode="&#x159;" horiz-adv-x="662" 
d="M301 833l101 93l11 -13l-112 -103l-112 103l11 13zM100 700h201q121 0 206 -85t85 -206q0 -91 -51 -164.5t-132 -105.5l87 -139h-24l-179 287h23l82 -131l8 3q49 19 86 58q38 38 59 86q21 51 21 106t-21 105q-21 49 -59 87q-37 37 -86 58q-50 21 -105 21h-181v-680h-20
v700z" />
    <glyph glyph-name="Sacute" unicode="&#x15a;" horiz-adv-x="531" 
d="M276 779h-22l65 148h22zM435 530h-20q0 62 -44 106t-106 44q-61 0 -105 -44q-44 -42 -44 -106q0 -63 44 -105q42 -44 105 -44q79 0 135 -56t56 -135t-56 -134.5t-135 -55.5t-134.5 55.5t-55.5 134.5h20q0 -70 50 -120t120 -50q71 0 121 50t50 120q0 71 -50 121t-121 50
q-70 0 -119.5 50.5t-49.5 118.5q0 70 49.5 120t119.5 50q71 0 120.5 -50t49.5 -120z" />
    <glyph glyph-name="sacute" unicode="&#x15b;" horiz-adv-x="531" 
d="M276 779h-22l65 148h22zM435 530h-20q0 62 -44 106t-106 44q-61 0 -105 -44q-44 -42 -44 -106q0 -63 44 -105q42 -44 105 -44q79 0 135 -56t56 -135t-56 -134.5t-135 -55.5t-134.5 55.5t-55.5 134.5h20q0 -70 50 -120t120 -50q71 0 121 50t50 120q0 71 -50 121t-121 50
q-70 0 -119.5 50.5t-49.5 118.5q0 70 49.5 120t119.5 50q71 0 120.5 -50t49.5 -120z" />
    <glyph glyph-name="Scedilla" unicode="&#x15e;" horiz-adv-x="531" 
d="M435 530h-20q0 62 -44 106t-106 44q-61 0 -105 -44q-44 -42 -44 -106q0 -63 44 -105q42 -44 105 -44q79 0 135 -56t56 -135q0 -71 -46.5 -124.5t-116.5 -63.5l-17 -37q22 -5 36.5 -23t14.5 -41q0 -28 -19 -47.5t-47 -19.5h-57l9 20h48q19 0 32.5 13.5t13.5 33.5
q0 19 -13.5 32.5t-32.5 13.5h-15l24 53h-5q-79 0 -134.5 55.5t-55.5 134.5h20q0 -70 50 -120t120 -50q71 0 121 50t50 120q0 71 -50 121t-121 50q-70 0 -119.5 49.5t-49.5 119.5t49.5 120t119.5 50q71 0 120.5 -50t49.5 -120z" />
    <glyph glyph-name="scedilla" unicode="&#x15f;" horiz-adv-x="531" 
d="M435 530h-20q0 62 -44 106t-106 44q-61 0 -105 -44q-44 -42 -44 -106q0 -63 44 -105q42 -44 105 -44q79 0 135 -56t56 -135q0 -71 -46.5 -124.5t-116.5 -63.5l-17 -37q22 -5 36.5 -23t14.5 -41q0 -28 -19 -47.5t-47 -19.5h-57l9 20h48q19 0 32.5 13.5t13.5 33.5
q0 19 -13.5 32.5t-32.5 13.5h-15l24 53h-5q-79 0 -134.5 55.5t-55.5 134.5h20q0 -70 50 -120t120 -50q71 0 121 50t50 120q0 71 -50 121t-121 50q-70 0 -119.5 49.5t-49.5 119.5t49.5 120t119.5 50q71 0 120.5 -50t49.5 -120z" />
    <glyph glyph-name="Scaron" unicode="&#x160;" horiz-adv-x="531" 
d="M378 880l-12 12l-101 -92l-100 92l-12 -12l112 -103zM415 530h20q0 70 -49.5 120t-120.5 50q-70 0 -119.5 -50t-49.5 -120t49.5 -119.5t119.5 -49.5q71 0 121 -50t50 -121q0 -70 -50 -120t-121 -50q-70 0 -120 50t-50 120h-20q0 -79 55.5 -134.5t134.5 -55.5t135 55.5
t56 134.5t-56 135t-135 56q-63 0 -105 44q-44 42 -44 105q0 64 44 106q44 44 105 44q62 0 106 -44t44 -106z" />
    <glyph glyph-name="scaron" unicode="&#x161;" horiz-adv-x="531" 
d="M266 810l-112 103l11 13l101 -93l101 93l11 -13zM435 530h-20q0 62 -44 106t-106 44q-61 0 -105 -44q-44 -42 -44 -106q0 -63 44 -105q42 -44 105 -44q79 0 135 -56t56 -135t-56 -134.5t-135 -55.5t-134.5 55.5t-55.5 134.5h20q0 -70 50 -120t120 -50q71 0 121 50t50 120
q0 71 -50 121t-121 50q-70 0 -119.5 49.5t-49.5 119.5t49.5 120t119.5 50q71 0 120.5 -50t49.5 -120z" />
    <glyph glyph-name="Tcedilla" unicode="&#x162;" horiz-adv-x="521" 
d="M70 700h381v-20h-180v-680h49q28 0 47 -19.5t19 -47.5q0 -27 -19 -46.5t-47 -19.5h-50l10 20h40q19 0 32.5 13.5t13.5 32.5q0 20 -13.5 33.5t-32.5 13.5h-69v700h-181v20z" />
    <glyph glyph-name="tcedilla" unicode="&#x163;" horiz-adv-x="521" 
d="M70 700h381v-20h-180v-680h49q28 0 47 -19.5t19 -47.5q0 -27 -19 -46.5t-47 -19.5h-50l10 20h40q19 0 32.5 13.5t13.5 32.5q0 20 -13.5 33.5t-32.5 13.5h-69v700h-181v20z" />
    <glyph glyph-name="Tcaron" unicode="&#x164;" horiz-adv-x="521" 
d="M373 913l-113 -103l-112 103l12 13l100 -93l101 93zM70 700h381v-20h-180v-680h-20v680h-181v20z" />
    <glyph glyph-name="tcaron" unicode="&#x165;" horiz-adv-x="521" 
d="M373 913l-113 -103l-112 103l12 13l100 -93l101 93zM70 700h381v-20h-180v-680h-20v680h-181v20z" />
    <glyph glyph-name="Tbar" unicode="&#x166;" horiz-adv-x="521" 
d="M251 513v167h-181v20h381v-20h-180v-167h180v-20h-180v-493h-20v493h-181v20h181z" />
    <glyph glyph-name="tbar" unicode="&#x167;" horiz-adv-x="521" 
d="M251 513v167h-181v20h381v-20h-180v-167h180v-20h-180v-493h-20v493h-181v20h181z" />
    <glyph glyph-name="Umacron" unicode="&#x16a;" horiz-adv-x="754" 
d="M432 838h-110v-15h110v15zM654 700v-423q0 -115 -81 -196t-196 -81t-196 81t-81 196v423h20v-423q0 -51 20 -100q18 -44 55 -82q38 -37 82 -55q49 -20 100 -20t100 20q44 18 82 55q37 38 55 82q20 49 20 100v423h20z" />
    <glyph glyph-name="umacron" unicode="&#x16b;" horiz-adv-x="754" 
d="M432 838h-110v-15h110v15zM654 700v-423q0 -115 -81 -196t-196 -81t-196 81t-81 196v423h20v-423q0 -51 20 -100q18 -44 55 -82q38 -37 82 -55q49 -20 100 -20t100 20q44 18 82 55q37 38 55 82q20 49 20 100v423h20z" />
    <glyph glyph-name="Uring" unicode="&#x16e;" horiz-adv-x="753" 
d="M312 831q0 27 19 46t46 19q26 0 45.5 -19t19.5 -46t-19.5 -46t-45.5 -19q-27 0 -46 19t-19 46zM427 831q0 20 -15 35t-35 15q-21 0 -35.5 -15t-14.5 -35q0 -21 14.5 -35.5t35.5 -14.5q20 0 35 14.5t15 35.5zM100 699h20v-422q0 -51 20 -100q18 -44 55 -82q38 -37 82 -55
q49 -20 100 -20t99 20q44 18 82 55q37 38 55 82q20 49 20 100v422h20v-422q0 -115 -81 -196t-195 -81q-115 0 -196 81t-81 196v422z" />
    <glyph glyph-name="uring" unicode="&#x16f;" horiz-adv-x="753" 
d="M312 831q0 27 19 46t46 19q26 0 45.5 -19t19.5 -46t-19.5 -46t-45.5 -19q-27 0 -46 19t-19 46zM427 831q0 20 -15 35t-35 15q-21 0 -35.5 -15t-14.5 -35q0 -21 14.5 -35.5t35.5 -14.5q20 0 35 14.5t15 35.5zM100 699h20v-422q0 -51 20 -100q18 -44 55 -82q38 -37 82 -55
q49 -20 100 -20t99 20q44 18 82 55q37 38 55 82q20 49 20 100v422h20v-422q0 -115 -81 -196t-195 -81q-115 0 -196 81t-81 196v422z" />
    <glyph glyph-name="Uhungarumlaut" unicode="&#x170;" horiz-adv-x="753" 
d="M313 745l64 148h22l-64 -148h-22zM418 745l65 148h22l-65 -148h-22zM100 699h20v-422q0 -51 20 -100q18 -44 55 -82q38 -37 82 -55q49 -20 100 -20t99 20q44 18 82 55q37 38 55 82q20 49 20 100v422h20v-422q0 -115 -81 -196t-195 -81q-115 0 -196 81t-81 196v422z" />
    <glyph glyph-name="uhungarumlaut" unicode="&#x171;" horiz-adv-x="753" 
d="M313 745l64 148h22l-64 -148h-22zM418 745l65 148h22l-65 -148h-22zM100 699h20v-422q0 -51 20 -100q18 -44 55 -82q38 -37 82 -55q49 -20 100 -20t99 20q44 18 82 55q37 38 55 82q20 49 20 100v422h20v-422q0 -115 -81 -196t-195 -81q-115 0 -196 81t-81 196v422z" />
    <glyph glyph-name="Uogonek" unicode="&#x172;" horiz-adv-x="753" 
d="M653 700v-423q0 -112 -78.5 -193t-190.5 -83l-30 -77q-2 -4 -2 -14q0 -19 13.5 -32.5t32.5 -13.5h50v-20h-50q-28 0 -47 19.5t-19 46.5q0 10 3 21l27 70q-110 5 -186 85t-76 191v423h20v-423q0 -51 20 -100q18 -44 55 -82q36 -35 82 -54q49 -20 100 -20t99 20
q46 19 82 54q37 38 55 82q20 49 20 100v423h20z" />
    <glyph glyph-name="uogonek" unicode="&#x173;" horiz-adv-x="753" 
d="M653 700v-423q0 -112 -78.5 -193t-190.5 -83l-30 -77q-2 -4 -2 -14q0 -19 13.5 -32.5t32.5 -13.5h50v-20h-50q-28 0 -47 19.5t-19 46.5q0 10 3 21l27 70q-110 5 -186 85t-76 191v423h20v-423q0 -51 20 -100q18 -44 55 -82q36 -35 82 -54q49 -20 100 -20t99 20
q46 19 82 54q37 38 55 82q20 49 20 100v423h20z" />
    <glyph glyph-name="Wcircumflex" unicode="&#x174;" horiz-adv-x="878" 
d="M171 832v17l118 55l119 -55v-17l-119 55zM835 700h23l-409 -700l-160 274l-161 -274h-23l172 294l-237 406h23l226 -386l226 386h24l-238 -406l148 -254z" />
    <glyph glyph-name="wcircumflex" unicode="&#x175;" horiz-adv-x="878" 
d="M171 832v17l118 55l119 -55v-17l-119 55zM835 700h23l-409 -700l-160 274l-161 -274h-23l172 294l-237 406h23l226 -386l226 386h24l-238 -406l148 -254z" />
    <glyph glyph-name="Ycircumflex" unicode="&#x176;" horiz-adv-x="612" 
d="M306 887l-119 -55l-6 14l125 58l125 -58l-6 -14zM570 700h22l-276 -566v-134h-20v134l-276 566h22l264 -541z" />
    <glyph glyph-name="ycircumflex" unicode="&#x177;" horiz-adv-x="612" 
d="M306 887l-119 -55l-6 14l125 58l125 -58l-6 -14zM570 700h22l-276 -566v-134h-20v134l-276 566h22l264 -541z" />
    <glyph glyph-name="Ydieresis" unicode="&#x178;" horiz-adv-x="612" 
d="M264 809q-8 0 -14 6t-6 14t6 14t14 6t14 -6t6 -14t-6 -14t-14 -6zM348 809q-8 0 -14 6t-6 14t6 14t14 6t14 -6t6 -14t-6 -14t-14 -6zM570 700h22l-276 -566v-134h-20v134l-276 566h22l264 -541z" />
    <glyph glyph-name="Zacute" unicode="&#x179;" horiz-adv-x="644" 
d="M398 927l-65 -148h-22l65 148h22zM554 700l-428 -680h428v-20h-464l19 31l408 649h-427v20h464z" />
    <glyph glyph-name="zacute" unicode="&#x17a;" horiz-adv-x="644" 
d="M398 927l-65 -148h-22l65 148h22zM554 700l-428 -680h428v-20h-464l19 31l408 649h-427v20h464z" />
    <glyph glyph-name="Zdotaccent" unicode="&#x17b;" horiz-adv-x="644" 
d="M322 851q8 0 14 -6t6 -14t-6 -14t-14 -6t-14 6t-6 14t6 14t14 6zM109 31l408 649h-427v20h464l-428 -680h428v-20h-464z" />
    <glyph glyph-name="zdotaccent" unicode="&#x17c;" horiz-adv-x="644" 
d="M322 851q8 0 14 -6t6 -14t-6 -14t-14 -6t-14 6t-6 14t6 14t14 6zM109 31l408 649h-427v20h464l-428 -680h428v-20h-464z" />
    <glyph glyph-name="Zcaron" unicode="&#x17d;" horiz-adv-x="644" 
d="M322 833l100 93l12 -13l-112 -103l-113 103l12 13zM109 31l408 649h-427v20h464l-428 -680h428v-20h-464z" />
    <glyph glyph-name="zcaron" unicode="&#x17e;" horiz-adv-x="644" 
d="M322 833l100 93l12 -13l-112 -103l-113 103l12 13zM109 31l408 649h-427v20h464l-428 -680h428v-20h-464z" />
    <glyph glyph-name="Scommaaccent" unicode="&#x218;" horiz-adv-x="531" 
d="M435 530h-20q0 62 -44 106t-106 44q-61 0 -105 -44q-44 -42 -44 -106q0 -63 44 -105q42 -44 105 -44q79 0 135 -56t56 -135q0 -76 -52.5 -130.5t-127.5 -59.5v-109h-20v109q-76 4 -128.5 59t-52.5 131h20q0 -70 50 -120t120 -50q71 0 121 50t50 120q0 71 -50 121t-121 50
q-70 0 -119.5 49.5t-49.5 119.5t49.5 120t119.5 50q71 0 120.5 -50t49.5 -120z" />
    <glyph glyph-name="scommaaccent" unicode="&#x219;" horiz-adv-x="531" 
d="M435 530h-20q0 62 -44 106t-106 44q-61 0 -105 -44q-44 -42 -44 -106q0 -63 44 -105q42 -44 105 -44q79 0 135 -56t56 -135q0 -76 -52.5 -130.5t-127.5 -59.5v-109h-20v109q-76 4 -128.5 59t-52.5 131h20q0 -70 50 -120t120 -50q71 0 121 50t50 120q0 71 -50 121t-121 50
q-70 0 -119.5 49.5t-49.5 119.5t49.5 120t119.5 50q71 0 120.5 -50t49.5 -120z" />
    <glyph glyph-name="uni021A" unicode="&#x21a;" horiz-adv-x="521" 
d="M70 700h381v-20h-180v-680h-20v680h-181v20zM250 -34h20v-96h-20v96z" />
    <glyph glyph-name="uni021B" unicode="&#x21b;" horiz-adv-x="521" 
d="M70 700h381v-20h-180v-680h-20v680h-181v20zM250 -34h20v-96h-20v96z" />
    <glyph glyph-name="circumflex" unicode="&#x2c6;" 
 />
    <glyph glyph-name="caron" unicode="&#x2c7;" 
 />
    <glyph glyph-name="breve" unicode="&#x2d8;" 
 />
    <glyph glyph-name="dotaccent" unicode="&#x2d9;" 
 />
    <glyph glyph-name="ring" unicode="&#x2da;" 
 />
    <glyph glyph-name="ogonek" unicode="&#x2db;" 
 />
    <glyph glyph-name="tilde" unicode="&#x2dc;" 
 />
    <glyph glyph-name="hungarumlaut" unicode="&#x2dd;" 
 />
    <glyph glyph-name="Wgrave" unicode="&#x1e80;" horiz-adv-x="878" 
d="M321 745l-106 180h-23l106 -180h23zM835 700h23l-409 -700l-160 274l-161 -274h-23l172 294l-237 406h23l226 -386l226 386h24l-238 -406l148 -254z" />
    <glyph glyph-name="wgrave" unicode="&#x1e81;" horiz-adv-x="878" 
d="M321 745l-106 180h-23l106 -180h23zM835 700h23l-409 -700l-160 274l-161 -274h-23l172 294l-237 406h23l226 -386l226 386h24l-238 -406l148 -254z" />
    <glyph glyph-name="Wacute" unicode="&#x1e82;" horiz-adv-x="878" 
d="M541 745l106 180h23l-106 -180h-23zM835 700h23l-409 -700l-160 274l-161 -274h-23l172 294l-237 406h23l226 -386l226 386h24l-238 -406l148 -254z" />
    <glyph glyph-name="wacute" unicode="&#x1e83;" horiz-adv-x="878" 
d="M541 745l106 180h23l-106 -180h-23zM835 700h23l-409 -700l-160 274l-161 -274h-23l172 294l-237 406h23l226 -386l226 386h24l-238 -406l148 -254z" />
    <glyph glyph-name="Wdieresis" unicode="&#x1e84;" horiz-adv-x="878" 
d="M248 809q-8 0 -14 6t-6 14t6 14t14 6t14 -6t6 -14t-6 -14t-14 -6zM331 809q-8 0 -14 6t-6 14t6 14t14 6t14 -6t6 -14t-6 -14t-14 -6zM835 700h23l-409 -700l-160 274l-161 -274h-23l172 294l-237 406h23l226 -386l226 386h24l-238 -406l148 -254z" />
    <glyph glyph-name="wdieresis" unicode="&#x1e85;" horiz-adv-x="878" 
d="M248 809q-8 0 -14 6t-6 14t6 14t14 6t14 -6t6 -14t-6 -14t-14 -6zM331 809q-8 0 -14 6t-6 14t6 14t14 6t14 -6t6 -14t-6 -14t-14 -6zM835 700h23l-409 -700l-160 274l-161 -274h-23l172 294l-237 406h23l226 -386l226 386h24l-238 -406l148 -254z" />
    <glyph glyph-name="Ygrave" unicode="&#x1ef2;" horiz-adv-x="612" 
d="M42 700h-22l276 -566v-134h20v134l276 566h-22l-264 -541zM196 700h-22l78 -160h22z" />
    <glyph glyph-name="ygrave" unicode="&#x1ef3;" horiz-adv-x="612" 
d="M42 700h-22l276 -566v-134h20v134l276 566h-22l-264 -541zM196 700h-22l78 -160h22z" />
    <glyph glyph-name="endash" unicode="&#x2013;" horiz-adv-x="413" 
d="M333 360h-253v-20h253v20z" />
    <glyph glyph-name="emdash" unicode="&#x2014;" horiz-adv-x="546" 
d="M466 340h-386v20h386v-20z" />
    <glyph glyph-name="quoteleft" unicode="&#x2018;" horiz-adv-x="180" 
d="M80 700h20v-175h-20v175z" />
    <glyph glyph-name="quoteright" unicode="&#x2019;" horiz-adv-x="180" 
d="M80 700h20v-175h-20v175z" />
    <glyph glyph-name="quotesinglbase" unicode="&#x201a;" 
 />
    <glyph glyph-name="quotedblleft" unicode="&#x201c;" horiz-adv-x="241" 
d="M80 700h20v-175h-20v175zM141 700h20v-175h-20v175z" />
    <glyph glyph-name="quotedblright" unicode="&#x201d;" horiz-adv-x="241" 
d="M80 700h20v-175h-20v175zM141 700h20v-175h-20v175z" />
    <glyph glyph-name="quotedblbase" unicode="&#x201e;" 
 />
    <glyph glyph-name="dagger" unicode="&#x2020;" 
 />
    <glyph glyph-name="daggerdbl" unicode="&#x2021;" 
 />
    <glyph glyph-name="bullet" unicode="&#x2022;" horiz-adv-x="200" 
d="M100 330q-8 0 -14 6t-6 14t6 14t14 6t14 -6t6 -14t-6 -14t-14 -6z" />
    <glyph glyph-name="ellipsis" unicode="&#x2026;" 
 />
    <glyph glyph-name="perthousand" unicode="&#x2030;" 
 />
    <glyph glyph-name="guilsinglleft" unicode="&#x2039;" horiz-adv-x="401" 
d="M60 350l271 156v-23l-231 -133l231 -133v-23z" />
    <glyph glyph-name="guilsinglright" unicode="&#x203a;" horiz-adv-x="401" 
d="M341 350l-271 -156v23l231 133l-231 134v23z" />
    <glyph glyph-name="fraction" unicode="&#x2044;" 
 />
    <glyph glyph-name="Euro" unicode="&#x20ac;" horiz-adv-x="733" 
d="M671 91l12 -16q-94 -75 -217 -75q-145 0 -247.5 102.5t-102.5 247.5q0 28 4 51h-90v20h93q25 120 121 199.5t222 79.5q123 0 217 -75l-12 -16q-33 26 -76 45q-63 26 -129 26q-67 0 -128 -26q-63 -27 -105 -71q-46 -46 -71 -105q-11 -26 -18 -57h216v-20h-220
q-4 -34 -4 -51q0 -39 9 -75h325v-20h-320l12 -33q25 -59 71 -105q42 -44 105 -71q61 -26 128 -26q66 0 129 26q43 19 76 45z" />
    <glyph glyph-name="trademark" unicode="&#x2122;" horiz-adv-x="1266" 
 />
    <glyph glyph-name="partialdiff" unicode="&#x2202;" 
 />
    <glyph glyph-name="emptyset" unicode="&#x2205;" horiz-adv-x="800" 
d="M750 686l-95 -96q95 -100 95 -240q0 -145 -102.5 -247.5t-247.5 -102.5q-139 0 -240 96l-96 -96l-14 14l96 96q-96 101 -96 240q0 145 102.5 247.5t247.5 102.5q140 0 240 -95l96 95zM160 124l466 466q-40 39 -97 64q-63 26 -129 26q-67 0 -128 -26q-63 -27 -105 -71
q-46 -46 -71 -105q-26 -61 -26 -128t26 -128q24 -55 64 -98zM640 576l-466 -466q39 -38 98 -64q61 -26 128 -26q66 0 129 26q60 26 105 71q47 47 70 105q26 58 26 128t-26 128q-22 55 -64 98z" />
    <glyph glyph-name="product" unicode="&#x220f;" 
 />
    <glyph glyph-name="summation" unicode="&#x2211;" 
 />
    <glyph glyph-name="minus" unicode="&#x2212;" horiz-adv-x="413" 
d="M333 360h-253v-20h253v20z" />
    <glyph glyph-name="radical" unicode="&#x221a;" 
 />
    <glyph glyph-name="infinity" unicode="&#x221e;" 
 />
    <glyph glyph-name="integral" unicode="&#x222b;" 
 />
    <glyph glyph-name="approxequal" unicode="&#x2248;" horiz-adv-x="425" 
d="M255 445l90 -50l-7 -13l-83 46l-85 -48l-90 50l7 13l83 -46zM255 321l90 -50l-7 -13l-83 46l-85 -48l-90 50l7 13l83 -46z" />
    <glyph glyph-name="notequal" unicode="&#x2260;" 
 />
    <glyph glyph-name="lessequal" unicode="&#x2264;" 
 />
    <glyph glyph-name="greaterequal" unicode="&#x2265;" 
 />
    <glyph glyph-name="lozenge" unicode="&#x25ca;" 
 />
    <glyph glyph-name="zero.osf" 
 />
    <glyph glyph-name="one.osf" 
 />
    <glyph glyph-name="two.osf" 
 />
    <glyph glyph-name="three.osf" 
 />
    <glyph glyph-name="four.osf" 
 />
    <glyph glyph-name="five.osf" 
 />
    <glyph glyph-name="six.osf" 
 />
    <glyph glyph-name="seven.osf" 
 />
    <glyph glyph-name="eight.osf" 
 />
    <glyph glyph-name="nine.osf" 
 />
    <glyph glyph-name="A.001" horiz-adv-x="710" 
 />
    <glyph glyph-name="A.002" horiz-adv-x="710" 
 />
  </font>
</defs>
</svg>
