<?xml version="1.0" standalone="no"?>
<!DOCTYPE svg PUBLIC "-//W3C//DTD SVG 1.1//EN" "http://www.w3.org/Graphics/SVG/1.1/DTD/svg11.dtd" >
<svg xmlns="http://www.w3.org/2000/svg" xmlns:xlink="http://www.w3.org/1999/xlink" version="1.1">
<metadata>
Created by FontForge 20170731 at Mon Aug 19 06:58:21 2013
 By Aleksey,,,
copyright missing
</metadata>
<defs>
<font id="Recorda-Regular" horiz-adv-x="600" >
  <font-face 
    font-family="Recorda"
    font-weight="400"
    font-stretch="normal"
    units-per-em="1000"
    panose-1="0 0 5 0 0 0 0 0 0 0"
    ascent="800"
    descent="-200"
    x-height="700"
    cap-height="700"
    bbox="0 -200 858 950"
    underline-thickness="50"
    underline-position="-200"
    unicode-range="U+0020-25CA"
  />
<missing-glyph horiz-adv-x="500" 
d="M0 0v700h500v-700h-500zM420 650h-340l170 -255zM50 95l170 255l-170 255v-510zM450 95v510l-170 -255zM420 50l-170 255l-170 -255h340z" />
    <glyph glyph-name=".notdef" horiz-adv-x="500" 
d="M0 0v700h500v-700h-500zM420 650h-340l170 -255zM50 95l170 255l-170 255v-510zM450 95v510l-170 -255zM420 50l-170 255l-170 -255h340z" />
    <glyph glyph-name=".null" horiz-adv-x="0" 
 />
    <glyph glyph-name="nonmarkingreturn" horiz-adv-x="333" 
 />
    <glyph glyph-name="space" unicode=" " horiz-adv-x="400" 
 />
    <glyph glyph-name="exclam" unicode="!" horiz-adv-x="250" 
d="M165 700h-80v-529h80v529zM180 55q0 23 -16 39t-39 16t-39 -16t-16 -39t16 -39t39 -16t39 16t16 39z" />
    <glyph glyph-name="quotedbl" unicode="&#x22;" horiz-adv-x="325" 
d="M143 525h-63v175h63v-175zM182 700h63v-175h-63v175z" />
    <glyph glyph-name="numbersign" unicode="#" horiz-adv-x="599" 
d="M523 160h-104l-32 -160h-82l33 160h-129l-33 -160h-82l76 371h-110l17 80h109l33 160h81l-32 -160h129l32 160h82l-75 -371h103zM354 240l27 131h-129l-27 -131h129z" />
    <glyph glyph-name="dollar" unicode="$" 
d="M445 511h-81q0 45 -30 74q-31 31 -74 31t-74 -31q-30 -29 -30 -74t30 -73q31 -31 74 -31q85 0 145.5 -60t60.5 -145q0 -74 -47.5 -131t-118.5 -71v-91h-80v91q-71 14 -118 71t-47 131h80q0 -51 36 -89q37 -37 89 -37t89 37q36 38 36 89q0 50 -36 88q-37 37 -89 37
q-76 0 -130.5 54t-54.5 130q0 66 41 116.5t104 64.5v92h80v-92q63 -14 104 -64.5t41 -116.5z" />
    <glyph glyph-name="percent" unicode="%" horiz-adv-x="758" 
d="M199 700q62 0 106 -43.5t44 -105.5t-44 -106t-106 -44t-105.5 44t-43.5 106q0 61 44 105t105 44zM132 0l399 700h92l-398 -700h-93zM199 620q-29 0 -49 -20t-20 -49t20 -49.5t49 -20.5t49.5 20.5t20.5 49.5t-20.5 49t-49.5 20zM559 299q62 0 105.5 -44t43.5 -106
q0 -61 -44 -105t-105 -44t-105 44t-44 105q0 62 43.5 106t105.5 44zM559 219q-29 0 -49 -20.5t-20 -49.5t20 -49t49 -20t49 20t20 49t-20 49.5t-49 20.5z" />
    <glyph glyph-name="ampersand" unicode="&#x26;" horiz-adv-x="663" 
d="M372 355l130 -185l55 38l46 -65l-115 -82l-20 -14q-91 -62 -195 -43t-165 105q-62 88 -44 193.5t106 167.5l15 10l-91 129l82 57q64 44 138.5 30.5t117.5 -74.5q44 -62 31 -137.5t-75 -118.5zM206 590l120 -170l16 11q34 25 42 67q7 41 -18 78q-25 36 -67 42
q-43 8 -77 -17zM231 415l-15 -11q-61 -42 -73 -115q-12 -72 30 -133q44 -61 116 -73q73 -13 133 30l15 11z" />
    <glyph glyph-name="quotesingle" unicode="'" horiz-adv-x="223" 
d="M80 700h63v-175h-63v175z" />
    <glyph glyph-name="parenleft" unicode="(" horiz-adv-x="661" 
d="M311 71l-35 -71q-94 52 -150 145.5t-56 204.5t56 204t150 146l35 -72q-36 -20 -68 -52q-44 -44 -68 -102q-25 -57 -25 -124q0 -68 25 -125q24 -56 68 -102q32 -30 68 -52z" />
    <glyph glyph-name="parenright" unicode=")" horiz-adv-x="661" 
d="M350 72l35 -72q94 52 150 145.5t56 204.5t-56 204.5t-150 145.5l-35 -72q36 -20 67 -51q45 -45 69 -102q25 -59 25 -125t-25 -125q-24 -57 -69 -102q-31 -31 -67 -51z" />
    <glyph glyph-name="asterisk" unicode="*" horiz-adv-x="536" 
d="M362 700l94 -162l-94 -163h-188l-94 163l94 162h188zM220 660l48 -82l48 82h-96zM138 558h95l-47 82zM398 558l-48 82l-47 -82h95zM186 435l47 83h-95zM398 518h-95l47 -83zM316 415l-48 83l-48 -83h96z" />
    <glyph glyph-name="plus" unicode="+" horiz-adv-x="617" 
d="M345 112h-73v202h-202v73h202v202h73v-202h202v-73h-202v-202z" />
    <glyph glyph-name="comma" unicode="," horiz-adv-x="270" 
d="M122 89l-52 -178h78l52 178h-78z" />
    <glyph glyph-name="hyphen" unicode="-" horiz-adv-x="416" 
d="M336 314v73h-256v-73h256z" />
    <glyph glyph-name="period" unicode="." horiz-adv-x="230" 
d="M170 55q0 23 -16 39t-39 16t-39 -16t-16 -39t16 -39t39 -16t39 16t16 39z" />
    <glyph glyph-name="slash" unicode="/" horiz-adv-x="421" 
d="M287 700h84l-236 -700h-85z" />
    <glyph glyph-name="zero" unicode="0" horiz-adv-x="820" 
d="M410 700q145 0 247.5 -102.5t102.5 -247.5t-102.5 -247.5t-247.5 -102.5t-247.5 102.5t-102.5 247.5t102.5 247.5t247.5 102.5zM250 567l377 -378q22 30 32 56q21 50 21 105q0 56 -21 105q-22 50 -58 86t-86 58q-49 21 -105 21t-105 -21q-32 -14 -55 -32zM571 133
l-378 378q-18 -25 -32 -56q-21 -49 -21 -105t21 -105q21 -47 58 -86q36 -36 86 -58q49 -21 105 -21t105 21q34 15 56 32z" />
    <glyph glyph-name="one" unicode="1" horiz-adv-x="383" 
d="M283 700v-700h-80v620h-123v80h203z" />
    <glyph glyph-name="two" unicode="2" horiz-adv-x="574" 
d="M504 80h-266l211 255q53 62 53 144q0 91 -65 156t-156 65q-92 0 -157 -65q-64 -66 -64 -156h79q0 58 41.5 99.5t100.5 41.5t100 -41t41 -100q0 -53 -34 -92l-320 -387h436v80z" />
    <glyph glyph-name="three" unicode="3" horiz-adv-x="685" 
d="M604 700l-155 -155q78 -32 127 -103.5t49 -158.5q0 -117 -82.5 -200t-200.5 -83q-117 0 -199.5 83t-82.5 200h80q0 -83 59 -144q59 -59 143 -59q83 0 144 59q59 61 59 144q0 84 -59 143q-43 43 -101 55l-147 -148v114l173 173h-251v80h444z" />
    <glyph glyph-name="four" unicode="4" horiz-adv-x="677" 
d="M515 0l-48 86h-397l330 614h91l-135 -251l251 -449h-92zM311 365l-107 -199h218z" />
    <glyph glyph-name="five" unicode="5" horiz-adv-x="608" 
d="M218 522h69q108 0 184.5 -76.5t76.5 -184.5t-76.5 -184.5t-184.5 -76.5q-102 0 -177 69l39 75q3 -4 10 -11q53 -53 128 -53t128 53t53 128t-53 128t-128 53h-111l-44 -85l-72 35l161 308h216v-80h-168z" />
    <glyph glyph-name="six" unicode="6" horiz-adv-x="671" 
d="M368 700l-97 -156q37 7 64 7q114 0 195 -80.5t81 -194.5q0 -115 -81 -195.5t-195 -80.5t-194.5 80.5t-80.5 195.5q0 83 45 150l169 274h94zM474 137q57 59 57 139q0 79 -57 138q-57 57 -139 57q-81 0 -138 -57t-57 -138q0 -82 57 -139t138 -57q82 0 139 57z" />
    <glyph glyph-name="seven" unicode="7" horiz-adv-x="582" 
d="M60 620v80h462l-269 -700h-86l238 620h-345z" />
    <glyph glyph-name="eight" unicode="8" horiz-adv-x="583" 
d="M406 432q53 -31 85 -84.5t32 -116.5q0 -95 -68 -163t-163 -68q-96 0 -164 68t-68 163q0 63 32 116.5t85 84.5q-44 47 -44 110q0 65 46.5 111.5t112.5 46.5q65 0 111.5 -46.5t46.5 -111.5q0 -63 -44 -110zM292 620q-33 0 -56 -23t-23 -55q0 -33 23 -56t56 -23q32 0 55 23
t23 56q0 32 -23 55t-55 23zM399 124q44 46 44 107q0 62 -44 108q-46 44 -107 44q-62 0 -108 -44q-44 -46 -44 -108q0 -61 44 -107q46 -44 108 -44q61 0 107 44z" />
    <glyph glyph-name="nine" unicode="9" horiz-adv-x="671" 
d="M302 0l97 156q-35 -7 -64 -7q-114 0 -194.5 80.5t-80.5 195.5q0 114 80.5 194.5t194.5 80.5q115 0 195.5 -80.5t80.5 -194.5q0 -82 -45 -151l-170 -274h-94zM197 563q-57 -57 -57 -138q0 -82 57 -139t138 -57q82 0 139 57t57 139q0 81 -57 138t-139 57q-81 0 -138 -57z
" />
    <glyph glyph-name="colon" unicode=":" horiz-adv-x="283" 
d="M142 433q25 0 43 18t18 44t-18 44t-43 18q-26 0 -44 -18.5t-18 -43.5t18 -43.5t44 -18.5zM142 143q25 0 43 18t18 44t-18 44t-43 18q-26 0 -44 -18.5t-18 -43.5t18 -43.5t44 -18.5z" />
    <glyph glyph-name="semicolon" unicode=";" horiz-adv-x="272" 
d="M202 475q0 23 -16 39t-39 16t-39 -16t-16 -39t16 -39t39 -16t39 16t16 39zM109 298l-39 -128h78l39 128h-78z" />
    <glyph glyph-name="less" unicode="&#x3c;" horiz-adv-x="432" 
d="M50 350l312 180v-92l-152 -88l152 -88v-92z" />
    <glyph glyph-name="equal" unicode="=" horiz-adv-x="554" 
d="M80 473h394v-80h-394v80zM80 307h394v-80h-394v80z" />
    <glyph glyph-name="greater" unicode="&#x3e;" horiz-adv-x="432" 
d="M70 530l312 -180l-312 -180v92l152 88l-152 88v92z" />
    <glyph glyph-name="question" unicode="?" horiz-adv-x="516" 
d="M50 530l10 30q19 51 58 86q41 38 95 49q85 19 158 -28q73 -48 91 -132q11 -54 -5 -107q-17 -51 -55 -88l-3 -3h-1q-70 -59 -96 -133q-8 -24 -10 -48h-80q5 108 97 207zM149 561l217 -140q29 47 17 97q-11 53 -56 81q-44 29 -97 18q-52 -11 -81 -56zM251 0q-23 0 -39 16
t-16 39t16 39t39 16t39 -16t16 -39t-16 -39t-39 -16z" />
    <glyph glyph-name="at" unicode="@" horiz-adv-x="800" 
d="M400 700q145 0 247.5 -102.5t102.5 -247.5t-102.5 -247.5t-247.5 -102.5t-247.5 102.5t-102.5 247.5t102.5 247.5t247.5 102.5zM597 534l-6 7q-36 36 -86 58q-49 21 -105 21t-105 -21q-50 -22 -86 -58t-58 -86q-21 -49 -21 -105t21 -105q22 -50 58 -86t86 -58
q49 -21 105 -21h6l56 134l-28 -67q-16 -3 -34 -3q-86 0 -146 60t-60 146t60 146t146 60q52 0 96.5 -24t72.5 -65zM478 251l47 112q-4 43 -36 76q-37 37 -89 37q-53 0 -90 -37q-36 -38 -36 -89t36 -89q37 -37 90 -37q43 0 78 27zM501 100l4 1q50 22 86 58t58 86q21 50 21 105
q0 52 -20 103z" />
    <glyph glyph-name="A" unicode="A" horiz-adv-x="650" 
d="M500 97h-350l-42 -97h-88l305 700l305 -700h-88zM465 177l-140 323l-140 -323h280z" />
    <glyph glyph-name="B" unicode="B" horiz-adv-x="678" 
d="M100 700h151q81 0 138.5 -57.5t57.5 -138.5q0 -34 -10 -61q68 -14 116 -62q65 -65 65 -158q0 -91 -65 -158q-65 -65 -158 -65h-295v700zM180 388h71q48 0 82 34t34 82t-34 82t-82 34h-71v-232zM180 80h215q59 0 101.5 42t42.5 101q0 60 -42.5 102t-101.5 42h-4
q-59 -59 -140 -59h-71v-228z" />
    <glyph glyph-name="C" unicode="C" horiz-adv-x="730" 
d="M606 154l54 -59q-101 -95 -240 -95q-145 0 -247.5 102.5t-102.5 247.5t102.5 247.5t247.5 102.5q140 0 240 -95l-54 -59q-37 34 -81 53q-49 21 -105 21t-105 -21q-50 -22 -86 -58t-58 -86q-21 -49 -21 -105t21 -105q22 -50 58 -86t86 -58q49 -21 105 -21t105 21
q47 20 81 53z" />
    <glyph glyph-name="D" unicode="D" horiz-adv-x="776" 
d="M100 700h266q145 0 247.5 -102.5t102.5 -247.5t-102.5 -247.5t-247.5 -102.5h-266v700zM180 620v-540h186q56 0 105 21q50 22 86 58t58 86q21 49 21 105t-21 105q-22 50 -58 86t-86 58q-49 21 -105 21h-186z" />
    <glyph glyph-name="E" unicode="E" horiz-adv-x="539" 
d="M454 700v-80h-354v80h354zM454 310h-354v80h354v-80zM454 80v-80h-354v80h354z" />
    <glyph glyph-name="F" unicode="F" horiz-adv-x="539" 
d="M180 0h-80v700h354v-80h-274v-230h274v-80h-274v-310z" />
    <glyph glyph-name="G" unicode="G" horiz-adv-x="819" 
d="M517 396l242 -241l-57 -57l-25 25q-49 -57 -118.5 -90t-148.5 -33q-145 0 -247.5 102.5t-102.5 247.5t102.5 247.5t247.5 102.5q139 0 240 -95l-54 -59q-34 33 -81 53q-49 21 -105 21t-105 -21q-50 -22 -86 -58q-37 -39 -58 -86q-21 -49 -21 -105t21 -105q21 -47 58 -86
q36 -36 86 -58q49 -21 105 -21t105 21q50 22 86 58q7 7 19 21l-160 159z" />
    <glyph glyph-name="H" unicode="H" horiz-adv-x="708" 
d="M608 700v-700h-77v97h-351v-97h-80v700h80v-523h351v523h77z" />
    <glyph glyph-name="I" unicode="I" horiz-adv-x="300" 
d="M190 700h-80v-700h80v700z" />
    <glyph glyph-name="J" unicode="J" horiz-adv-x="657" 
d="M557 700v-451q0 -103 -72.5 -176t-175.5 -73t-176 73t-73 176h80q0 -70 50 -120q51 -49 119 -49t119 49q49 49 49 120v371h-168l37 80h211z" />
    <glyph glyph-name="K" unicode="K" horiz-adv-x="670" 
d="M328 325l-228 -325v700h80v-446l313 446h97l-210 -301l209 -399h-90z" />
    <glyph glyph-name="L" unicode="L" horiz-adv-x="538" 
d="M453 0h-353v700h80v-620h273v-80z" />
    <glyph glyph-name="M" unicode="M" horiz-adv-x="788" 
d="M688 691v-691h-80v489l-215 -228l-213 233v-494h-80v700l294 -321z" />
    <glyph glyph-name="N" unicode="N" horiz-adv-x="708" 
d="M528 700h80v-700h-80v266l-348 270v-536h-80v700l428 -333v333z" />
    <glyph glyph-name="O" unicode="O" horiz-adv-x="820" 
d="M410 700q145 0 247.5 -102.5t102.5 -247.5t-102.5 -247.5t-247.5 -102.5t-247.5 102.5t-102.5 247.5t102.5 247.5t247.5 102.5zM410 620q-56 0 -105 -21q-50 -22 -86 -58t-58 -86q-21 -49 -21 -105t21 -105q22 -50 58 -86t86 -58q49 -21 105 -21t105 21q50 22 86 58
t58 86q21 50 21 105q0 56 -21 105q-22 50 -58 86t-86 58q-49 21 -105 21zM410 424q31 0 52.5 -21.5t21.5 -52.5t-21.5 -52.5t-52.5 -21.5t-52.5 21.5t-21.5 52.5t21.5 52.5t52.5 21.5z" />
    <glyph glyph-name="P" unicode="P" horiz-adv-x="689" 
d="M100 700h215q126 0 215 -89t89 -214q0 -126 -89 -215t-215 -89h-135v-93h-80v700zM180 173h135q93 0 158 65q66 66 66 159q0 92 -66 158q-65 65 -158 65h-135v-447z" />
    <glyph glyph-name="Q" unicode="Q" horiz-adv-x="820" 
d="M410 700q145 0 247.5 -102.5t102.5 -247.5t-102.5 -247.5t-247.5 -102.5t-247.5 102.5t-102.5 247.5t102.5 247.5t247.5 102.5zM592 150l9 9q39 39 58 86q21 50 21 105q0 56 -21 105q-19 47 -58 86q-35 36 -86 58q-49 21 -105 21q-54 0 -105 -21q-50 -22 -86 -58
q-38 -40 -57 -86q-22 -52 -22 -105t22 -105q19 -46 57 -86q36 -36 86 -58q51 -21 105 -21q56 0 105 21l10 5l-173 244h98z" />
    <glyph glyph-name="R" unicode="R" horiz-adv-x="699" 
d="M100 700h226q125 0 214 -89t89 -214q0 -86 -44.5 -158t-117.5 -111l80 -128h-94l-180 287h95l57 -91q33 17 59 42q65 67 65 159q0 91 -65 158q-67 65 -158 65h-146v-620h-80v700z" />
    <glyph glyph-name="S" unicode="S" horiz-adv-x="561" 
d="M465 515h-80q0 45 -31 74q-31 31 -74 31t-74 -31q-30 -30 -30 -74q0 -43 30 -73q31 -31 74 -31q86 0 146 -60.5t60 -145.5t-60.5 -145t-145.5 -60t-145 60t-60 145h80q0 -51 37 -88q35 -37 88 -37q52 0 89 37t37 88q0 52 -37 89t-89 37q-77 0 -130.5 54.5t-53.5 129.5
q0 77 54 131t130 54t130.5 -54t54.5 -131z" />
    <glyph glyph-name="T" unicode="T" horiz-adv-x="494" 
d="M70 700h354v-80h-137v-620h-80v620h-137v80z" />
    <glyph glyph-name="U" unicode="U" horiz-adv-x="782" 
d="M100 700v-408q0 -121 85 -206.5t206 -85.5t206 85.5t85 206.5v408h-77v-408q0 -88 -62.5 -151t-151.5 -63t-151.5 63t-62.5 151v408h-77z" />
    <glyph glyph-name="V" unicode="V" horiz-adv-x="649" 
d="M629 700l-304 -700l-305 700h87l218 -500l217 500h87z" />
    <glyph glyph-name="W" unicode="W" horiz-adv-x="878" 
d="M449 0l-143 245l-143 -245h-93l190 324l-220 376h93l173 -297l174 297h93l-220 -376l96 -165l316 541h93z" />
    <glyph glyph-name="X" unicode="X" horiz-adv-x="643" 
d="M275 350l-205 350h92l159 -271l159 271h93l-205 -350l205 -350h-93l-159 271l-158 -271h-93z" />
    <glyph glyph-name="Y" unicode="Y" horiz-adv-x="625" 
d="M605 700l-252 -519v-181h-80v181l-253 519h89l204 -419l203 419h89z" />
    <glyph glyph-name="Z" unicode="Z" horiz-adv-x="688" 
d="M90 700h508l-367 -620h367v-80h-508l368 620h-368v80z" />
    <glyph glyph-name="bracketleft" unicode="[" horiz-adv-x="397" 
d="M160 -120h137v-80h-217v1000h217v-80h-137v-840z" />
    <glyph glyph-name="backslash" unicode="\" horiz-adv-x="422" 
d="M135 700l237 -700h-85l-237 700h85z" />
    <glyph glyph-name="bracketright" unicode="]" horiz-adv-x="397" 
d="M237 -120h-137v-80h217v1000h-217v-80h137v-840z" />
    <glyph glyph-name="asciicircum" unicode="^" horiz-adv-x="461" 
d="M50 388l180 312l181 -312h-93l-88 152l-87 -152h-93z" />
    <glyph glyph-name="underscore" unicode="_" horiz-adv-x="546" 
d="M466 0h-386v80h386v-80z" />
    <glyph glyph-name="grave" unicode="`" 
 />
    <glyph glyph-name="a" unicode="a" horiz-adv-x="650" 
d="M500 97h-350l-42 -97h-88l305 700l305 -700h-88zM465 177l-140 323l-140 -323h280z" />
    <glyph glyph-name="b" unicode="b" horiz-adv-x="678" 
d="M100 700h151q81 0 138.5 -57.5t57.5 -138.5q0 -34 -10 -61q68 -14 116 -62q65 -65 65 -158q0 -91 -65 -158q-65 -65 -158 -65h-295v700zM180 388h71q48 0 82 34t34 82t-34 82t-82 34h-71v-232zM180 80h215q59 0 101.5 42t42.5 101q0 60 -42.5 102t-101.5 42h-4
q-59 -59 -140 -59h-71v-228z" />
    <glyph glyph-name="c" unicode="c" horiz-adv-x="730" 
d="M606 154l54 -59q-101 -95 -240 -95q-145 0 -247.5 102.5t-102.5 247.5t102.5 247.5t247.5 102.5q140 0 240 -95l-54 -59q-37 34 -81 53q-49 21 -105 21t-105 -21q-50 -22 -86 -58t-58 -86q-21 -49 -21 -105t21 -105q22 -50 58 -86t86 -58q49 -21 105 -21t105 21
q47 20 81 53z" />
    <glyph glyph-name="d" unicode="d" horiz-adv-x="776" 
d="M100 700h266q145 0 247.5 -102.5t102.5 -247.5t-102.5 -247.5t-247.5 -102.5h-266v700zM180 620v-540h186q56 0 105 21q50 22 86 58t58 86q21 49 21 105t-21 105q-22 50 -58 86t-86 58q-49 21 -105 21h-186z" />
    <glyph glyph-name="e" unicode="e" horiz-adv-x="538" 
d="M453 80v-80h-353v700h353v-80h-273v-230h273v-80h-273v-230h273z" />
    <glyph glyph-name="f" unicode="f" horiz-adv-x="539" 
d="M180 0h-80v700h354v-80h-274v-230h274v-80h-274v-310z" />
    <glyph glyph-name="g" unicode="g" horiz-adv-x="819" 
d="M517 396l242 -241l-57 -57l-25 25q-49 -57 -118.5 -90t-148.5 -33q-145 0 -247.5 102.5t-102.5 247.5t102.5 247.5t247.5 102.5q139 0 240 -95l-54 -59q-34 33 -81 53q-49 21 -105 21t-105 -21q-50 -22 -86 -58q-37 -39 -58 -86q-21 -49 -21 -105t21 -105q21 -47 58 -86
q36 -36 86 -58q49 -21 105 -21t105 21q50 22 86 58q7 7 19 21l-160 159z" />
    <glyph glyph-name="h" unicode="h" horiz-adv-x="708" 
d="M608 700v-700h-77v97h-351v-97h-80v700h80v-523h351v523h77z" />
    <glyph glyph-name="i" unicode="i" horiz-adv-x="300" 
d="M190 700h-80v-700h80v700z" />
    <glyph glyph-name="j" unicode="j" horiz-adv-x="657" 
d="M557 700v-451q0 -103 -72.5 -176t-175.5 -73t-176 73t-73 176h80q0 -70 50 -120q51 -49 119 -49t119 49q49 49 49 120v371h-168l37 80h211z" />
    <glyph glyph-name="k" unicode="k" horiz-adv-x="670" 
d="M328 325l-228 -325v700h80v-446l313 446h97l-210 -301l209 -399h-90z" />
    <glyph glyph-name="l" unicode="l" horiz-adv-x="538" 
d="M453 0h-353v700h80v-620h273v-80z" />
    <glyph glyph-name="m" unicode="m" horiz-adv-x="788" 
d="M688 691v-691h-80v489l-215 -228l-213 233v-494h-80v700l294 -321z" />
    <glyph glyph-name="n" unicode="n" horiz-adv-x="708" 
d="M528 700h80v-700h-80v266l-348 270v-536h-80v700l428 -333v333z" />
    <glyph glyph-name="o" unicode="o" horiz-adv-x="820" 
d="M410 700q145 0 247.5 -102.5t102.5 -247.5t-102.5 -247.5t-247.5 -102.5t-247.5 102.5t-102.5 247.5t102.5 247.5t247.5 102.5zM410 620q-56 0 -105 -21q-50 -22 -86 -58t-58 -86q-21 -49 -21 -105t21 -105q22 -50 58 -86t86 -58q49 -21 105 -21t105 21q50 22 86 58
t58 86q21 50 21 105q0 56 -21 105q-22 50 -58 86t-86 58q-49 21 -105 21zM410 424q31 0 52.5 -21.5t21.5 -52.5t-21.5 -52.5t-52.5 -21.5t-52.5 21.5t-21.5 52.5t21.5 52.5t52.5 21.5z" />
    <glyph glyph-name="p" unicode="p" horiz-adv-x="689" 
d="M100 700h215q126 0 215 -89t89 -214q0 -126 -89 -215t-215 -89h-135v-93h-80v700zM180 173h135q93 0 158 65q66 66 66 159q0 92 -66 158q-65 65 -158 65h-135v-447z" />
    <glyph glyph-name="q" unicode="q" horiz-adv-x="820" 
d="M410 700q145 0 247.5 -102.5t102.5 -247.5t-102.5 -247.5t-247.5 -102.5t-247.5 102.5t-102.5 247.5t102.5 247.5t247.5 102.5zM592 150l9 9q39 39 58 86q21 50 21 105q0 56 -21 105q-19 47 -58 86q-35 36 -86 58q-49 21 -105 21q-54 0 -105 -21q-50 -22 -86 -58
q-38 -40 -57 -86q-22 -52 -22 -105t22 -105q19 -46 57 -86q36 -36 86 -58q51 -21 105 -21q56 0 105 21l10 5l-173 244h98z" />
    <glyph glyph-name="r" unicode="r" horiz-adv-x="699" 
d="M100 700h226q125 0 214 -89t89 -214q0 -86 -44.5 -158t-117.5 -111l80 -128h-94l-180 287h95l57 -91q33 17 59 42q65 67 65 159q0 91 -65 158q-67 65 -158 65h-146v-620h-80v700z" />
    <glyph glyph-name="s" unicode="s" horiz-adv-x="561" 
d="M465 515h-80q0 45 -31 74q-31 31 -74 31t-74 -31q-30 -30 -30 -74q0 -43 30 -73q31 -31 74 -31q86 0 146 -60.5t60 -145.5t-60.5 -145t-145.5 -60t-145 60t-60 145h80q0 -51 37 -88q35 -37 88 -37q52 0 89 37t37 88q0 52 -37 89t-89 37q-77 0 -130.5 54.5t-53.5 129.5
q0 77 54 131t130 54t130.5 -54t54.5 -131z" />
    <glyph glyph-name="t" unicode="t" horiz-adv-x="494" 
d="M70 700h354v-80h-137v-620h-80v620h-137v80z" />
    <glyph glyph-name="u" unicode="u" horiz-adv-x="782" 
d="M100 700v-408q0 -121 85 -206.5t206 -85.5t206 85.5t85 206.5v408h-77v-408q0 -88 -62.5 -151t-151.5 -63t-151.5 63t-62.5 151v408h-77z" />
    <glyph glyph-name="v" unicode="v" horiz-adv-x="649" 
d="M629 700l-304 -700l-305 700h87l218 -500l217 500h87z" />
    <glyph glyph-name="w" unicode="w" horiz-adv-x="878" 
d="M449 0l-143 245l-143 -245h-93l190 324l-220 376h93l173 -297l174 297h93l-220 -376l96 -165l316 541h93z" />
    <glyph glyph-name="x" unicode="x" horiz-adv-x="643" 
d="M275 350l-205 350h92l159 -271l159 271h93l-205 -350l205 -350h-93l-159 271l-158 -271h-93z" />
    <glyph glyph-name="y" unicode="y" horiz-adv-x="625" 
d="M605 700l-252 -519v-181h-80v181l-253 519h89l204 -419l203 419h89z" />
    <glyph glyph-name="z" unicode="z" horiz-adv-x="688" 
d="M90 700h508l-367 -620h367v-80h-508l368 620h-368v80z" />
    <glyph glyph-name="braceleft" unicode="{" horiz-adv-x="336" 
d="M117 436v115q0 61 43.5 105t105.5 44v-80q-28 0 -48.5 -20t-20.5 -49v-115q0 -49 -34 -86q34 -37 34 -86v-115q0 -29 20.5 -49t48.5 -20v-80q-62 0 -105.5 44t-43.5 105v115q0 19 -14 32.5t-33 13.5v80h1q19 0 32.5 13.5t13.5 32.5z" />
    <glyph glyph-name="bar" unicode="|" 
 />
    <glyph glyph-name="braceright" unicode="}" horiz-adv-x="336" 
d="M140 149v115q0 49 34 86q-35 37 -35 86v115q0 29 -20.5 49t-48.5 20v80q62 0 106 -43.5t44 -105.5v-115q0 -19 13.5 -32.5t32.5 -13.5v-80q-19 0 -32.5 -13.5t-13.5 -32.5v-115q0 -62 -44 -105.5t-106 -43.5v80q29 0 49.5 20t20.5 49z" />
    <glyph glyph-name="asciitilde" unicode="~" horiz-adv-x="471" 
d="M109 402l79 -40l94 48l109 -56l-29 -56l-80 41l-94 -48l-108 55z" />
    <glyph glyph-name="exclamdown" unicode="&#xa1;" 
 />
    <glyph glyph-name="cent" unicode="&#xa2;" horiz-adv-x="690" 
d="M640 603l-54 -59q-37 34 -81 53q-49 21 -105 21t-105 -21q-50 -22 -86 -58t-58 -86q-21 -49 -21 -105t21 -105q22 -50 58 -86t86 -58q49 -21 105 -21t105 21q47 20 81 53l54 -59q-84 -79 -200 -93v-90h-80v90q-131 15 -220.5 114.5t-89.5 233.5t89.5 233.5t220.5 113.5
v90h80v-90q115 -12 200 -92z" />
    <glyph glyph-name="sterling" unicode="&#xa3;" horiz-adv-x="566" 
d="M516 643l-50 -62q-48 39 -111 39q-73 0 -124 -51t-51 -124v-128h229v-80h-229v-157h336v-80h-476v80h60v365q0 106 74.5 180.5t180.5 74.5q91 0 161 -57z" />
    <glyph glyph-name="currency" unicode="&#xa4;" horiz-adv-x="510" 
d="M430 468l-55 -55q16 -30 16 -64q0 -33 -16 -63l55 -54l-57 -57l-54 54q-30 -16 -65 -16q-34 0 -64 16l-53 -54l-57 57l54 53q-16 32 -16 64q0 35 16 65l-54 54l57 57l54 -55q30 16 63 16q34 0 64 -16l55 55zM254 293q23 0 40 16.5t17 39.5t-17 40t-40 17t-39.5 -17
t-16.5 -40t16.5 -39.5t39.5 -16.5z" />
    <glyph glyph-name="yen" unicode="&#xa5;" horiz-adv-x="625" 
d="M605 700l-228 -469h92v-63h-116v-168h-80v168h-117v63h93l-229 469h89l129 -265h149l129 265h89zM357 372h-88l44 -91z" />
    <glyph glyph-name="brokenbar" unicode="&#xa6;" 
 />
    <glyph glyph-name="section" unicode="&#xa7;" 
 />
    <glyph glyph-name="dieresis" unicode="&#xa8;" 
 />
    <glyph glyph-name="copyright" unicode="&#xa9;" 
 />
    <glyph glyph-name="guillemotleft" unicode="&#xab;" 
 />
    <glyph glyph-name="logicalnot" unicode="&#xac;" 
 />
    <glyph glyph-name="registered" unicode="&#xae;" 
 />
    <glyph glyph-name="macron" unicode="&#xaf;" 
 />
    <glyph glyph-name="degree" unicode="&#xb0;" 
 />
    <glyph glyph-name="plusminus" unicode="&#xb1;" 
 />
    <glyph glyph-name="acute" unicode="&#xb4;" 
 />
    <glyph glyph-name="paragraph" unicode="&#xb6;" 
 />
    <glyph glyph-name="periodcentered" unicode="&#xb7;" horiz-adv-x="270" 
d="M80 350q0 22 16 38.5t39 16.5t39 -16.5t16 -38.5t-16 -38.5t-39 -16.5t-39 16.5t-16 38.5z" />
    <glyph glyph-name="cedilla" unicode="&#xb8;" 
 />
    <glyph glyph-name="guillemotright" unicode="&#xbb;" 
 />
    <glyph glyph-name="questiondown" unicode="&#xbf;" horiz-adv-x="604" 
 />
    <glyph glyph-name="Agrave" unicode="&#xc0;" horiz-adv-x="649" 
d="M309 863h87l78 -180h-87zM107 0h-87l305 700l304 -700h-87l-42 97h-350zM184 177h281l-140 323z" />
    <glyph glyph-name="Aacute" unicode="&#xc1;" horiz-adv-x="649" 
d="M176 683l77 180h88l-78 -180h-87zM107 0h-87l305 700l304 -700h-87l-42 97h-350zM184 177h281l-140 323z" />
    <glyph glyph-name="Acircumflex" unicode="&#xc2;" horiz-adv-x="649" 
d="M325 864l-131 -61l-27 57l158 73l157 -73l-27 -57zM325 700l304 -700h-87l-42 97h-350l-43 -97h-87zM465 177l-140 323l-141 -323h281z" />
    <glyph glyph-name="Atilde" unicode="&#xc3;" horiz-adv-x="649" 
d="M372 857l-94 -48l-109 55l29 56l80 -41l94 48l108 -55l-29 -56zM325 700l304 -700h-87l-42 97h-350l-43 -97h-87zM465 177l-140 323l-141 -323h281z" />
    <glyph glyph-name="Adieresis" unicode="&#xc4;" horiz-adv-x="649" 
d="M289 855q0 -23 -16 -39t-39 -16t-39 16t-16 39q0 22 16 38.5t39 16.5q22 0 38.5 -16.5t16.5 -38.5zM471 855q0 -23 -16 -39t-39 -16t-39 16t-16 39q0 22 16 38.5t39 16.5q22 0 38.5 -16.5t16.5 -38.5zM325 700l304 -700h-87l-42 97h-350l-43 -97h-87zM465 177l-140 323
l-141 -323h281z" />
    <glyph glyph-name="Aring" unicode="&#xc5;" horiz-adv-x="649" 
d="M245 831q0 33 23.5 56.5t56.5 23.5t56.5 -23.5t23.5 -56.5t-23.5 -56.5t-56.5 -23.5t-56.5 23.5t-23.5 56.5zM370 831q0 19 -13.5 32t-31.5 13q-19 0 -32 -13t-13 -32t13 -32t32 -13q18 0 31.5 13t13.5 32zM325 700l304 -700h-87l-42 97h-350l-43 -97h-87zM465 177
l-140 323l-141 -323h281z" />
    <glyph glyph-name="Ccedilla" unicode="&#xc7;" horiz-adv-x="730" 
d="M660 605l-54 -59q-37 34 -81 53q-49 21 -105 21t-105 -21q-50 -22 -86 -58t-58 -86q-21 -49 -21 -105t21 -105q22 -50 58 -86t86 -58q49 -21 105 -21t105 21q47 20 81 53l54 -59q-89 -83 -210 -93l-6 -13q44 -26 44 -76q0 -37 -25.5 -62.5t-61.5 -25.5h-63l28 63h35
q10 0 17 7.5t7 17.5t-7 17t-17 7h-49l29 65q-132 15 -221.5 114.5t-89.5 233.5q0 145 102.5 247.5t247.5 102.5q140 0 240 -95z" />
    <glyph glyph-name="Egrave" unicode="&#xc8;" horiz-adv-x="539" 
d="M178 927h87l64 -148h-87zM454 700v-80h-354v80h354zM454 310h-354v80h354v-80zM454 80v-80h-354v80h354z" />
    <glyph glyph-name="Eacute" unicode="&#xc9;" horiz-adv-x="539" 
d="M235 779l64 148h87l-64 -148h-87zM454 700v-80h-354v80h354zM454 310h-354v80h354v-80zM454 80v-80h-354v80h354z" />
    <glyph glyph-name="Ecircumflex" unicode="&#xca;" horiz-adv-x="539" 
d="M120 860l157 73l157 -73l-26 -57l-131 61l-131 -61zM454 700v-80h-354v80h354zM454 310h-354v80h354v-80zM454 80v-80h-354v80h354z" />
    <glyph glyph-name="Edieresis" unicode="&#xcb;" horiz-adv-x="539" 
d="M265 855q0 -23 -16 -39t-39 -16t-39 16t-16 39q0 22 16 38.5t39 16.5q22 0 38.5 -16.5t16.5 -38.5zM393 855q0 -23 -16 -39t-39 -16t-39 16t-16 39q0 22 16.5 38.5t38.5 16.5q23 0 39 -16.5t16 -38.5zM454 700v-80h-354v80h354zM454 310h-354v80h354v-80zM454 80v-80
h-354v80h354z" />
    <glyph glyph-name="Igrave" unicode="&#xcc;" horiz-adv-x="281" 
d="M30 927h87l64 -148h-87zM100 0v700h80v-700h-80z" />
    <glyph glyph-name="Iacute" unicode="&#xcd;" horiz-adv-x="281" 
d="M187 779h-87l64 148h87zM101 0v700h80v-700h-80z" />
    <glyph glyph-name="Icircumflex" unicode="&#xce;" horiz-adv-x="414" 
d="M207 933l157 -73l-26 -57l-131 61l-130 -61l-27 57zM167 700h80v-700h-80v700z" />
    <glyph glyph-name="Idieresis" unicode="&#xcf;" horiz-adv-x="338" 
d="M105 937q22 0 38.5 -16.5t16.5 -38.5q0 -23 -16 -39t-39 -16t-39 16t-16 39q0 22 16.5 38.5t38.5 16.5zM288 882q0 -23 -16 -39t-39 -16t-39 16t-16 39q0 22 16.5 38.5t38.5 16.5q23 0 39 -16.5t16 -38.5zM129 700h80v-700h-80v700z" />
    <glyph glyph-name="Eth" unicode="&#xd0;" horiz-adv-x="812" 
d="M136 319h-76v63h76v318h266q145 0 247.5 -102.5t102.5 -247.5t-102.5 -247.5t-247.5 -102.5h-266v319zM216 382h76v-63h-76v-239h186q56 0 105 21q50 22 86 58t58 86q21 50 21 105q0 56 -21 105q-22 50 -58 86t-86 58q-49 21 -105 21h-186v-238z" />
    <glyph glyph-name="Ntilde" unicode="&#xd1;" horiz-adv-x="708" 
d="M318 879l94 48l109 -55l-29 -56l-80 41l-94 -48l-108 55l29 56zM528 700h80v-700h-80v266l-348 270v-536h-80v700l428 -333v333z" />
    <glyph glyph-name="Ograve" unicode="&#xd2;" horiz-adv-x="820" 
d="M302 927h88l64 -148h-88zM410 700q145 0 247.5 -102.5t102.5 -247.5t-102.5 -247.5t-247.5 -102.5t-247.5 102.5t-102.5 247.5t102.5 247.5t247.5 102.5zM410 81q112 0 190.5 79t78.5 190t-78.5 190t-190.5 79q-111 0 -189.5 -79t-78.5 -190t78.5 -190t189.5 -79z" />
    <glyph glyph-name="Oacute" unicode="&#xd3;" horiz-adv-x="820" 
d="M450 779h-87l64 148h87zM410 700q145 0 247.5 -102.5t102.5 -247.5t-102.5 -247.5t-247.5 -102.5t-247.5 102.5t-102.5 247.5t102.5 247.5t247.5 102.5zM410 81q112 0 190.5 79t78.5 190t-78.5 190t-190.5 79q-111 0 -189.5 -79t-78.5 -190t78.5 -190t189.5 -79z" />
    <glyph glyph-name="Ocircumflex" unicode="&#xd4;" horiz-adv-x="820" 
d="M410 933l157 -73l-26 -57l-131 61l-131 -61l-26 57zM410 700q145 0 247.5 -102.5t102.5 -247.5t-102.5 -247.5t-247.5 -102.5t-247.5 102.5t-102.5 247.5t102.5 247.5t247.5 102.5zM410 81q112 0 190.5 79t78.5 190t-78.5 190t-190.5 79q-111 0 -189.5 -79t-78.5 -190
t78.5 -190t189.5 -79z" />
    <glyph glyph-name="Otilde" unicode="&#xd5;" horiz-adv-x="820" 
d="M457 857l-94 -48l-108 55l28 56l80 -41l94 48l108 -55l-28 -56zM410 700q145 0 247.5 -102.5t102.5 -247.5t-102.5 -247.5t-247.5 -102.5t-247.5 102.5t-102.5 247.5t102.5 247.5t247.5 102.5zM410 81q112 0 190.5 79t78.5 190t-78.5 190t-190.5 79q-111 0 -189.5 -79
t-78.5 -190t78.5 -190t189.5 -79z" />
    <glyph glyph-name="Odieresis" unicode="&#xd6;" horiz-adv-x="820" 
d="M346 796q-23 0 -39 16t-16 39t16 39t39 16q22 0 38.5 -16t16.5 -39t-16.5 -39t-38.5 -16zM474 796q-22 0 -38.5 16t-16.5 39t16.5 39t38.5 16q23 0 39 -16t16 -39t-16 -39t-39 -16zM410 0q-145 0 -247.5 102.5t-102.5 247.5t102.5 247.5t247.5 102.5t247.5 -102.5
t102.5 -247.5t-102.5 -247.5t-247.5 -102.5zM410 619q-111 0 -189.5 -79t-78.5 -190t78.5 -190t189.5 -79q112 0 190.5 79t78.5 190t-78.5 190t-190.5 79z" />
    <glyph glyph-name="multiply" unicode="&#xd7;" horiz-adv-x="502" 
d="M80 221l129 129l-129 129l42 42l129 -129l129 129l42 -42l-128 -129l128 -129l-42 -42l-129 129l-129 -129z" />
    <glyph glyph-name="Oslash" unicode="&#xd8;" horiz-adv-x="820" 
d="M760 658l-82 -83q82 -98 82 -225q0 -145 -102.5 -247.5t-247.5 -102.5q-127 0 -225 82l-82 -82l-43 43l82 82q-82 98 -82 225q0 145 102.5 247.5t247.5 102.5q129 0 225 -82l83 82zM200 183l378 377q-73 59 -168 59q-111 0 -189.5 -79t-78.5 -190q0 -93 58 -167zM620 518
l-377 -378q72 -59 167 -59q112 0 190.5 79t78.5 190q0 95 -59 168z" />
    <glyph glyph-name="Ugrave" unicode="&#xd9;" horiz-adv-x="781" 
d="M300 893h87l64 -148h-87zM100 699h77v-407q0 -88 62.5 -151t151.5 -63q88 0 150.5 63t62.5 151v407h77v-407q0 -121 -85 -206.5t-205 -85.5q-121 0 -206 85.5t-85 206.5v407z" />
    <glyph glyph-name="Uacute" unicode="&#xda;" horiz-adv-x="781" 
d="M430 745h-87l64 148h87zM100 699h77v-407q0 -88 62.5 -151t151.5 -63q88 0 150.5 63t62.5 151v407h77v-407q0 -121 -85 -206.5t-205 -85.5q-121 0 -206 85.5t-85 206.5v407z" />
    <glyph glyph-name="Ucircumflex" unicode="&#xdb;" horiz-adv-x="781" 
d="M391 864l-131 -61l-27 57l158 73l157 -73l-27 -57zM100 699h77v-407q0 -88 62.5 -151t151.5 -63q88 0 150.5 63t62.5 151v407h77v-407q0 -121 -85 -206.5t-205 -85.5q-121 0 -206 85.5t-85 206.5v407z" />
    <glyph glyph-name="Udieresis" unicode="&#xdc;" horiz-adv-x="781" 
d="M365 821q0 -23 -16 -39t-39 -16q-22 0 -38.5 16t-16.5 39t16.5 39t38.5 16q23 0 39 -16t16 -39zM526 821q0 -23 -16 -39t-39 -16t-39 16t-16 39t16 39t39 16t39 -16t16 -39zM100 699h77v-407q0 -88 62.5 -151t151.5 -63q88 0 150.5 63t62.5 151v407h77v-407
q0 -121 -85 -206.5t-205 -85.5q-121 0 -206 85.5t-85 206.5v407z" />
    <glyph glyph-name="Yacute" unicode="&#xdd;" horiz-adv-x="625" 
d="M516 700h89l-252 -519v-181h-80v181l-253 519h89l204 -419zM285 545l75 155h70l-75 -155h-70z" />
    <glyph glyph-name="Thorn" unicode="&#xde;" horiz-adv-x="679" 
d="M180 627h162q115 0 196 -81t81 -196t-81 -196t-196 -81h-162v-73h-80v700h80v-73zM180 153h162q83 0 139 58q58 58 58 139t-58 139q-56 58 -139 58h-162v-394z" />
    <glyph glyph-name="germandbls" unicode="&#xdf;" horiz-adv-x="658" 
d="M100 0v501q0 91 41 145t121 54q82 0 140.5 -58t58.5 -141q0 -33 -11 -64q60 -27 96.5 -83.5t36.5 -124.5q0 -95 -67 -162t-162 -67h-116v80h116q62 0 106 44q43 43 43 105t-43 105q-22 22 -51 33q-59 -65 -147 -65h-24v80h24q49 0 84 35t35 84q0 47 -35 84q-37 35 -84 35
q-40 0 -63 -33q-19 -30 -19 -86v-9v-492h-80z" />
    <glyph glyph-name="agrave" unicode="&#xe0;" horiz-adv-x="649" 
d="M309 863h87l78 -180h-87zM107 0h-87l305 700l304 -700h-87l-42 97h-350zM184 177h281l-140 323z" />
    <glyph glyph-name="aacute" unicode="&#xe1;" horiz-adv-x="649" 
d="M176 683l77 180h88l-78 -180h-87zM107 0h-87l305 700l304 -700h-87l-42 97h-350zM184 177h281l-140 323z" />
    <glyph glyph-name="acircumflex" unicode="&#xe2;" horiz-adv-x="649" 
d="M325 864l-131 -61l-27 57l158 73l157 -73l-27 -57zM325 700l304 -700h-87l-42 97h-350l-43 -97h-87zM465 177l-140 323l-141 -323h281z" />
    <glyph glyph-name="atilde" unicode="&#xe3;" horiz-adv-x="649" 
d="M372 857l-94 -48l-109 55l29 56l80 -41l94 48l108 -55l-29 -56zM325 700l304 -700h-87l-42 97h-350l-43 -97h-87zM465 177l-140 323l-141 -323h281z" />
    <glyph glyph-name="adieresis" unicode="&#xe4;" horiz-adv-x="649" 
d="M289 855q0 -23 -16 -39t-39 -16t-39 16t-16 39q0 22 16 38.5t39 16.5q22 0 38.5 -16.5t16.5 -38.5zM471 855q0 -23 -16 -39t-39 -16t-39 16t-16 39q0 22 16 38.5t39 16.5q22 0 38.5 -16.5t16.5 -38.5zM325 700l304 -700h-87l-42 97h-350l-43 -97h-87zM465 177l-140 323
l-141 -323h281z" />
    <glyph glyph-name="aring" unicode="&#xe5;" horiz-adv-x="649" 
d="M245 831q0 33 23.5 56.5t56.5 23.5t56.5 -23.5t23.5 -56.5t-23.5 -56.5t-56.5 -23.5t-56.5 23.5t-23.5 56.5zM370 831q0 19 -13.5 32t-31.5 13q-19 0 -32 -13t-13 -32t13 -32t32 -13q18 0 31.5 13t13.5 32zM325 700l304 -700h-87l-42 97h-350l-43 -97h-87zM465 177
l-140 323l-141 -323h281z" />
    <glyph glyph-name="ae" unicode="&#xe6;" horiz-adv-x="836" 
d="M107 0h-87l305 700h441v-80h-406l100 -230h306v-80h-271l100 -230h171v-80h-223l-42 96h-352zM184 176h282l-141 324z" />
    <glyph glyph-name="ccedilla" unicode="&#xe7;" horiz-adv-x="730" 
d="M660 605l-54 -59q-37 34 -81 53q-49 21 -105 21t-105 -21q-50 -22 -86 -58t-58 -86q-21 -49 -21 -105t21 -105q22 -50 58 -86t86 -58q49 -21 105 -21t105 21q47 20 81 53l54 -59q-89 -83 -210 -93l-6 -13q44 -26 44 -76q0 -37 -25.5 -62.5t-61.5 -25.5h-63l28 63h35
q10 0 17 7.5t7 17.5t-7 17t-17 7h-49l29 65q-132 15 -221.5 114.5t-89.5 233.5q0 145 102.5 247.5t247.5 102.5q140 0 240 -95z" />
    <glyph glyph-name="egrave" unicode="&#xe8;" horiz-adv-x="539" 
d="M178 927h87l64 -148h-87zM453 80v-80h-353v700h353v-80h-273v-230h273v-80h-273v-230h273z" />
    <glyph glyph-name="eacute" unicode="&#xe9;" horiz-adv-x="538" 
d="M235 779l64 148h87l-64 -148h-87zM453 80v-80h-353v700h353v-80h-273v-230h273v-80h-273v-230h273z" />
    <glyph glyph-name="ecircumflex" unicode="&#xea;" horiz-adv-x="539" 
d="M120 860l157 73l157 -73l-26 -57l-131 61l-131 -61zM453 80v-80h-353v700h353v-80h-273v-230h273v-80h-273v-230h273z" />
    <glyph glyph-name="edieresis" unicode="&#xeb;" horiz-adv-x="539" 
d="M265 855q0 -23 -16 -39t-39 -16t-39 16t-16 39q0 22 16 38.5t39 16.5q22 0 38.5 -16.5t16.5 -38.5zM393 855q0 -23 -16 -39t-39 -16t-39 16t-16 39q0 22 16.5 38.5t38.5 16.5q23 0 39 -16.5t16 -38.5zM453 80v-80h-353v700h353v-80h-273v-230h273v-80h-273v-230h273z" />
    <glyph glyph-name="igrave" unicode="&#xec;" horiz-adv-x="281" 
d="M30 927h87l64 -148h-87zM100 0v700h80v-700h-80z" />
    <glyph glyph-name="iacute" unicode="&#xed;" horiz-adv-x="281" 
d="M187 779h-87l64 148h87zM101 0v700h80v-700h-80z" />
    <glyph glyph-name="icircumflex" unicode="&#xee;" horiz-adv-x="414" 
d="M207 933l157 -73l-26 -57l-131 61l-130 -61l-27 57zM167 700h80v-700h-80v700z" />
    <glyph glyph-name="idieresis" unicode="&#xef;" horiz-adv-x="338" 
d="M105 937q22 0 38.5 -16.5t16.5 -38.5q0 -23 -16 -39t-39 -16t-39 16t-16 39q0 22 16.5 38.5t38.5 16.5zM288 882q0 -23 -16 -39t-39 -16t-39 16t-16 39q0 22 16.5 38.5t38.5 16.5q23 0 39 -16.5t16 -38.5zM129 700h80v-700h-80v700z" />
    <glyph glyph-name="eth" unicode="&#xf0;" horiz-adv-x="812" 
d="M136 319h-76v63h76v318h266q145 0 247.5 -102.5t102.5 -247.5t-102.5 -247.5t-247.5 -102.5h-266v319zM216 382h76v-63h-76v-239h186q56 0 105 21q50 22 86 58t58 86q21 50 21 105q0 56 -21 105q-22 50 -58 86t-86 58q-49 21 -105 21h-186v-238z" />
    <glyph glyph-name="ntilde" unicode="&#xf1;" horiz-adv-x="708" 
d="M318 879l94 48l109 -55l-29 -56l-80 41l-94 -48l-108 55l29 56zM528 700h80v-700h-80v266l-348 270v-536h-80v700l428 -333v333z" />
    <glyph glyph-name="ograve" unicode="&#xf2;" horiz-adv-x="820" 
d="M302 927h88l64 -148h-88zM410 700q145 0 247.5 -102.5t102.5 -247.5t-102.5 -247.5t-247.5 -102.5t-247.5 102.5t-102.5 247.5t102.5 247.5t247.5 102.5zM410 81q112 0 190.5 79t78.5 190t-78.5 190t-190.5 79q-111 0 -189.5 -79t-78.5 -190t78.5 -190t189.5 -79z" />
    <glyph glyph-name="oacute" unicode="&#xf3;" horiz-adv-x="820" 
d="M450 779h-87l64 148h87zM410 700q145 0 247.5 -102.5t102.5 -247.5t-102.5 -247.5t-247.5 -102.5t-247.5 102.5t-102.5 247.5t102.5 247.5t247.5 102.5zM410 81q112 0 190.5 79t78.5 190t-78.5 190t-190.5 79q-111 0 -189.5 -79t-78.5 -190t78.5 -190t189.5 -79z" />
    <glyph glyph-name="ocircumflex" unicode="&#xf4;" horiz-adv-x="820" 
d="M410 933l157 -73l-26 -57l-131 61l-131 -61l-26 57zM410 700q145 0 247.5 -102.5t102.5 -247.5t-102.5 -247.5t-247.5 -102.5t-247.5 102.5t-102.5 247.5t102.5 247.5t247.5 102.5zM410 81q112 0 190.5 79t78.5 190t-78.5 190t-190.5 79q-111 0 -189.5 -79t-78.5 -190
t78.5 -190t189.5 -79z" />
    <glyph glyph-name="otilde" unicode="&#xf5;" horiz-adv-x="820" 
d="M457 857l-94 -48l-108 55l28 56l80 -41l94 48l108 -55l-28 -56zM410 700q145 0 247.5 -102.5t102.5 -247.5t-102.5 -247.5t-247.5 -102.5t-247.5 102.5t-102.5 247.5t102.5 247.5t247.5 102.5zM410 81q112 0 190.5 79t78.5 190t-78.5 190t-190.5 79q-111 0 -189.5 -79
t-78.5 -190t78.5 -190t189.5 -79z" />
    <glyph glyph-name="odieresis" unicode="&#xf6;" horiz-adv-x="820" 
d="M346 796q-23 0 -39 16t-16 39t16 39t39 16q22 0 38.5 -16t16.5 -39t-16.5 -39t-38.5 -16zM474 796q-22 0 -38.5 16t-16.5 39t16.5 39t38.5 16q23 0 39 -16t16 -39t-16 -39t-39 -16zM410 0q-145 0 -247.5 102.5t-102.5 247.5t102.5 247.5t247.5 102.5t247.5 -102.5
t102.5 -247.5t-102.5 -247.5t-247.5 -102.5zM410 619q-111 0 -189.5 -79t-78.5 -190t78.5 -190t189.5 -79q112 0 190.5 79t78.5 190t-78.5 190t-190.5 79z" />
    <glyph glyph-name="divide" unicode="&#xf7;" horiz-adv-x="554" 
d="M332 492q0 -23 -16 -39t-39 -16t-39 16t-16 39q0 22 16.5 38.5t38.5 16.5t38.5 -16.5t16.5 -38.5zM80 390h394v-80h-394v80zM277 263q23 0 39 -16.5t16 -38.5t-16 -38.5t-39 -16.5t-39 16.5t-16 38.5t16 38.5t39 16.5z" />
    <glyph glyph-name="oslash" unicode="&#xf8;" horiz-adv-x="820" 
d="M760 658l-82 -83q82 -98 82 -225q0 -145 -102.5 -247.5t-247.5 -102.5q-127 0 -225 82l-82 -82l-43 43l82 82q-82 98 -82 225q0 145 102.5 247.5t247.5 102.5q129 0 225 -82l83 82zM200 183l378 377q-73 59 -168 59q-111 0 -189.5 -79t-78.5 -190q0 -93 58 -167zM620 518
l-377 -378q72 -59 167 -59q112 0 190.5 79t78.5 190q0 95 -59 168z" />
    <glyph glyph-name="ugrave" unicode="&#xf9;" horiz-adv-x="781" 
d="M300 893h87l64 -148h-87zM100 699h77v-407q0 -88 62.5 -151t151.5 -63q88 0 150.5 63t62.5 151v407h77v-407q0 -121 -85 -206.5t-205 -85.5q-121 0 -206 85.5t-85 206.5v407z" />
    <glyph glyph-name="uacute" unicode="&#xfa;" horiz-adv-x="781" 
d="M430 745h-87l64 148h87zM100 699h77v-407q0 -88 62.5 -151t151.5 -63q88 0 150.5 63t62.5 151v407h77v-407q0 -121 -85 -206.5t-205 -85.5q-121 0 -206 85.5t-85 206.5v407z" />
    <glyph glyph-name="ucircumflex" unicode="&#xfb;" horiz-adv-x="781" 
d="M391 864l-131 -61l-27 57l158 73l157 -73l-27 -57zM100 699h77v-407q0 -88 62.5 -151t151.5 -63q88 0 150.5 63t62.5 151v407h77v-407q0 -121 -85 -206.5t-205 -85.5q-121 0 -206 85.5t-85 206.5v407z" />
    <glyph glyph-name="udieresis" unicode="&#xfc;" horiz-adv-x="781" 
d="M365 821q0 -23 -16 -39t-39 -16q-22 0 -38.5 16t-16.5 39t16.5 39t38.5 16q23 0 39 -16t16 -39zM526 821q0 -23 -16 -39t-39 -16t-39 16t-16 39t16 39t39 16t39 -16t16 -39zM100 699h77v-407q0 -88 62.5 -151t151.5 -63q88 0 150.5 63t62.5 151v407h77v-407
q0 -121 -85 -206.5t-205 -85.5q-121 0 -206 85.5t-85 206.5v407z" />
    <glyph glyph-name="yacute" unicode="&#xfd;" horiz-adv-x="625" 
d="M516 700h89l-252 -519v-181h-80v181l-253 519h89l204 -419zM285 545l75 155h70l-75 -155h-70z" />
    <glyph glyph-name="thorn" unicode="&#xfe;" horiz-adv-x="679" 
d="M180 627h162q115 0 196 -81t81 -196t-81 -196t-196 -81h-162v-73h-80v700h80v-73zM180 153h162q83 0 139 58q58 58 58 139t-58 139q-56 58 -139 58h-162v-394z" />
    <glyph glyph-name="ydieresis" unicode="&#xff;" horiz-adv-x="625" 
d="M287 821q0 -23 -16 -39t-39 -16q-22 0 -38.5 16t-16.5 39t16.5 39t38.5 16q23 0 39 -16t16 -39zM448 821q0 -23 -16 -39t-39 -16t-39 16t-16 39t16 39t39 16t39 -16t16 -39zM516 700h89l-252 -519v-181h-80v181l-253 519h89l204 -419z" />
    <glyph glyph-name="Amacron" unicode="&#x100;" horiz-adv-x="650" 
d="M395 859h-140v-63h140v63zM500 97h-350l-42 -97h-88l305 700l305 -700h-88zM465 177l-140 323l-140 -323h280z" />
    <glyph glyph-name="amacron" unicode="&#x101;" horiz-adv-x="650" 
d="M395 859h-140v-63h140v63zM500 97h-350l-42 -97h-88l305 700l305 -700h-88zM465 177l-140 323l-140 -323h280z" />
    <glyph glyph-name="Abreve" unicode="&#x102;" horiz-adv-x="649" 
d="M374 882h63q0 -46 -32.5 -79t-79.5 -33t-80 33t-33 79h63q0 -20 15 -34.5t35 -14.5t34.5 14.5t14.5 34.5zM325 700l304 -700h-87l-42 97h-350l-43 -97h-87zM465 177l-140 323l-141 -323h281z" />
    <glyph glyph-name="abreve" unicode="&#x103;" horiz-adv-x="649" 
d="M374 882h63q0 -46 -32.5 -79t-79.5 -33t-80 33t-33 79h63q0 -20 15 -34.5t35 -14.5t34.5 14.5t14.5 34.5zM325 700l304 -700h-87l-42 97h-350l-43 -97h-87zM465 177l-140 323l-141 -323h281z" />
    <glyph glyph-name="Aogonek" unicode="&#x104;" horiz-adv-x="649" 
d="M107 0h-87l305 700l304 -700h-87l-42 97h-350zM184 177h281l-140 323zM368 0l-30 -77q-1 -2 -1 -6q0 -11 7.5 -18t17.5 -7h50v-63h-50q-37 0 -62.5 25.5t-25.5 62.5q0 15 4 27l22 56h68z" />
    <glyph glyph-name="aogonek" unicode="&#x105;" horiz-adv-x="649" 
d="M107 0h-87l305 700l304 -700h-87l-42 97h-350zM184 177h281l-140 323zM368 0l-30 -77q-1 -2 -1 -6q0 -11 7.5 -18t17.5 -7h50v-63h-50q-37 0 -62.5 25.5t-25.5 62.5q0 15 4 27l22 56h68z" />
    <glyph glyph-name="Cacute" unicode="&#x106;" horiz-adv-x="730" 
d="M464 779h-87l64 148h87zM660 605l-54 -59q-37 34 -81 53q-49 21 -105 21t-105 -21q-50 -22 -86 -58t-58 -86q-21 -49 -21 -105t21 -105q22 -50 58 -86t86 -58q49 -21 105 -21t105 21q47 20 81 53l54 -59q-101 -95 -240 -95q-145 0 -247.5 102.5t-102.5 247.5t102.5 247.5
t247.5 102.5q140 0 240 -95z" />
    <glyph glyph-name="cacute" unicode="&#x107;" horiz-adv-x="730" 
d="M464 779h-87l64 148h87zM660 605l-54 -59q-37 34 -81 53q-49 21 -105 21t-105 -21q-50 -22 -86 -58t-58 -86q-21 -49 -21 -105t21 -105q22 -50 58 -86t86 -58q49 -21 105 -21t105 21q47 20 81 53l54 -59q-101 -95 -240 -95q-145 0 -247.5 102.5t-102.5 247.5t102.5 247.5
t247.5 102.5q140 0 240 -95z" />
    <glyph glyph-name="Cdotaccent" unicode="&#x10a;" horiz-adv-x="730" 
d="M367 829q0 23 16.5 39t38.5 16q23 0 39 -16t16 -39t-16 -39t-39 -16q-22 0 -38.5 16t-16.5 39zM606 154l54 -59q-101 -95 -240 -95q-145 0 -247.5 102.5t-102.5 247.5t102.5 247.5t247.5 102.5q140 0 240 -95l-54 -59q-37 34 -81 53q-49 21 -105 21t-105 -21
q-50 -22 -86 -58t-58 -86q-21 -49 -21 -105t21 -105q22 -50 58 -86t86 -58q49 -21 105 -21t105 21q47 20 81 53z" />
    <glyph glyph-name="cdotaccent" unicode="&#x10b;" horiz-adv-x="730" 
d="M367 829q0 23 16.5 39t38.5 16q23 0 39 -16t16 -39t-16 -39t-39 -16q-22 0 -38.5 16t-16.5 39zM606 154l54 -59q-101 -95 -240 -95q-145 0 -247.5 102.5t-102.5 247.5t102.5 247.5t247.5 102.5q140 0 240 -95l-54 -59q-37 34 -81 53q-49 21 -105 21t-105 -21
q-50 -22 -86 -58t-58 -86q-21 -49 -21 -105t21 -105q22 -50 58 -86t86 -58q49 -21 105 -21t105 21q47 20 81 53z" />
    <glyph glyph-name="Ccaron" unicode="&#x10c;" horiz-adv-x="730" 
d="M580 896l-172 -109l-172 109l34 53l138 -88l138 88zM660 605l-54 -59q-37 34 -81 53q-49 21 -105 21t-105 -21q-50 -22 -86 -58t-58 -86q-21 -49 -21 -105t21 -105q22 -50 58 -86t86 -58q49 -21 105 -21t105 21q47 20 81 53l54 -59q-101 -95 -240 -95
q-145 0 -247.5 102.5t-102.5 247.5t102.5 247.5t247.5 102.5q140 0 240 -95z" />
    <glyph glyph-name="ccaron" unicode="&#x10d;" horiz-adv-x="730" 
d="M580 896l-172 -109l-172 109l34 53l138 -88l138 88zM660 605l-54 -59q-37 34 -81 53q-49 21 -105 21t-105 -21q-50 -22 -86 -58t-58 -86q-21 -49 -21 -105t21 -105q22 -50 58 -86t86 -58q49 -21 105 -21t105 21q47 20 81 53l54 -59q-101 -95 -240 -95
q-145 0 -247.5 102.5t-102.5 247.5t102.5 247.5t247.5 102.5q140 0 240 -95z" />
    <glyph glyph-name="Dcaron" unicode="&#x10e;" horiz-adv-x="776" 
d="M366 787l-172 110l34 53l138 -88l138 88l34 -53zM100 700v-700h266q145 0 247.5 102.5t102.5 247.5t-102.5 247.5t-247.5 102.5h-266zM180 620h186q56 0 105 -21q50 -22 86 -58t58 -86q21 -50 21 -105q0 -56 -21 -105q-22 -50 -58 -86t-86 -58q-49 -21 -105 -21h-186v540
z" />
    <glyph glyph-name="dcaron" unicode="&#x10f;" horiz-adv-x="776" 
d="M366 787l-172 110l34 53l138 -88l138 88l34 -53zM100 700v-700h266q145 0 247.5 102.5t102.5 247.5t-102.5 247.5t-247.5 102.5h-266zM180 620h186q56 0 105 -21q50 -22 86 -58t58 -86q21 -50 21 -105q0 -56 -21 -105q-22 -50 -58 -86t-86 -58q-49 -21 -105 -21h-186v540
z" />
    <glyph glyph-name="Dcroat" unicode="&#x110;" horiz-adv-x="812" 
d="M136 319h-76v63h76v318h266q145 0 247.5 -102.5t102.5 -247.5t-102.5 -247.5t-247.5 -102.5h-266v319zM216 382h76v-63h-76v-239h186q56 0 105 21q50 22 86 58t58 86q21 50 21 105q0 56 -21 105q-22 50 -58 86t-86 58q-49 21 -105 21h-186v-238z" />
    <glyph glyph-name="dcroat" unicode="&#x111;" horiz-adv-x="812" 
d="M136 319h-76v63h76v318h266q145 0 247.5 -102.5t102.5 -247.5t-102.5 -247.5t-247.5 -102.5h-266v319zM216 382h76v-63h-76v-239h186q56 0 105 21q50 22 86 58t58 86q21 50 21 105q0 56 -21 105q-22 50 -58 86t-86 58q-49 21 -105 21h-186v-238z" />
    <glyph glyph-name="Emacron" unicode="&#x112;" horiz-adv-x="539" 
d="M344 859h-140v-63h140v63zM454 700v-80h-354v80h354zM454 310h-354v80h354v-80zM454 80v-80h-354v80h354z" />
    <glyph glyph-name="emacron" unicode="&#x113;" horiz-adv-x="539" 
d="M344 859h-140v-63h140v63zM453 80v-80h-353v700h353v-80h-273v-230h273v-80h-273v-230h273z" />
    <glyph glyph-name="Edotaccent" unicode="&#x116;" horiz-adv-x="539" 
d="M329 829q0 -23 -16.5 -39t-38.5 -16t-38.5 16t-16.5 39t16.5 39t38.5 16t38.5 -16t16.5 -39zM454 700v-80h-354v80h354zM454 310h-354v80h354v-80zM454 80v-80h-354v80h354z" />
    <glyph glyph-name="edotaccent" unicode="&#x117;" horiz-adv-x="539" 
d="M329 829q0 -23 -16.5 -39t-38.5 -16t-38.5 16t-16.5 39t16.5 39t38.5 16t38.5 -16t16.5 -39zM453 80v-80h-353v700h353v-80h-273v-230h273v-80h-273v-230h273z" />
    <glyph glyph-name="Eogonek" unicode="&#x118;" horiz-adv-x="526" 
d="M100 700h348v-79h-348v79zM100 389h348v-78h-348v78zM476 -102v-80h-74q-40 0 -68.5 28t-28.5 68q0 13 5 30v1l22 55h-232v79h348l-62 -160q0 -1 -0.5 -2.5t-0.5 -2.5q0 -7 5 -11.5t12 -4.5h74z" />
    <glyph glyph-name="eogonek" unicode="&#x119;" horiz-adv-x="527" 
d="M477 -119v-80h-75q-40 0 -68 28.5t-28 68.5q0 17 4 29l1 2l21 54h-232v700h348v-79h-270v-232h270v-78h-270v-232h271l-63 -160v-4q0 -7 4.5 -12t11.5 -5h75z" />
    <glyph glyph-name="Ecaron" unicode="&#x11a;" horiz-adv-x="539" 
d="M449 896l-172 -109l-172 109l34 53l138 -88l138 88zM454 700v-80h-354v80h354zM454 310h-354v80h354v-80zM454 80v-80h-354v80h354z" />
    <glyph glyph-name="ecaron" unicode="&#x11b;" horiz-adv-x="539" 
d="M449 896l-172 -109l-172 109l34 53l138 -88l138 88zM453 80v-80h-353v700h353v-80h-273v-230h273v-80h-273v-230h273z" />
    <glyph glyph-name="Gbreve" unicode="&#x11e;" horiz-adv-x="819" 
d="M298 882h63q0 -20 14.5 -34.5t34.5 -14.5t34.5 14.5t14.5 34.5h63q0 -46 -33 -79t-79 -33t-79 33t-33 79zM702 98l-25 25q-49 -57 -118.5 -90t-148.5 -33q-145 0 -247.5 102.5t-102.5 247.5t102.5 247.5t247.5 102.5q139 0 240 -95l-54 -59q-34 33 -81 53q-49 21 -105 21
t-105 -21q-50 -22 -86 -58q-37 -39 -58 -86q-21 -49 -21 -105t21 -105q21 -47 58 -86q36 -36 86 -58q49 -21 105 -21t105 21q50 22 86 58q7 7 19 21l-160 159l57 57l242 -241z" />
    <glyph glyph-name="gbreve" unicode="&#x11f;" horiz-adv-x="819" 
d="M298 882h63q0 -20 14.5 -34.5t34.5 -14.5t34.5 14.5t14.5 34.5h63q0 -46 -33 -79t-79 -33t-79 33t-33 79zM702 98l-25 25q-49 -57 -118.5 -90t-148.5 -33q-145 0 -247.5 102.5t-102.5 247.5t102.5 247.5t247.5 102.5q139 0 240 -95l-54 -59q-34 33 -81 53q-49 21 -105 21
t-105 -21q-50 -22 -86 -58q-37 -39 -58 -86q-21 -49 -21 -105t21 -105q21 -47 58 -86q36 -36 86 -58q49 -21 105 -21t105 21q50 22 86 58q7 7 19 21l-160 159l57 57l242 -241z" />
    <glyph glyph-name="Gdotaccent" unicode="&#x120;" horiz-adv-x="819" 
d="M355 829q0 23 16.5 39t38.5 16q23 0 39 -16t16 -39t-16 -39t-39 -16q-22 0 -38.5 16t-16.5 39zM517 396l242 -241l-57 -57l-25 25q-49 -57 -118.5 -90t-148.5 -33q-145 0 -247.5 102.5t-102.5 247.5t102.5 247.5t247.5 102.5q139 0 240 -95l-54 -59q-34 33 -81 53
q-49 21 -105 21t-105 -21q-50 -22 -86 -58q-37 -39 -58 -86q-21 -49 -21 -105t21 -105q21 -47 58 -86q36 -36 86 -58q49 -21 105 -21t105 21q50 22 86 58q7 7 19 21l-160 159z" />
    <glyph glyph-name="gdotaccent" unicode="&#x121;" horiz-adv-x="819" 
d="M355 829q0 23 16.5 39t38.5 16q23 0 39 -16t16 -39t-16 -39t-39 -16q-22 0 -38.5 16t-16.5 39zM517 396l242 -241l-57 -57l-25 25q-49 -57 -118.5 -90t-148.5 -33q-145 0 -247.5 102.5t-102.5 247.5t102.5 247.5t247.5 102.5q139 0 240 -95l-54 -59q-34 33 -81 53
q-49 21 -105 21t-105 -21q-50 -22 -86 -58q-37 -39 -58 -86q-21 -49 -21 -105t21 -105q21 -47 58 -86q36 -36 86 -58q49 -21 105 -21t105 21q50 22 86 58q7 7 19 21l-160 159z" />
    <glyph glyph-name="Gcommaaccent" unicode="&#x122;" horiz-adv-x="819" 
d="M650 605l-54 -59q-34 33 -81 53q-49 21 -105 21t-105 -21q-50 -22 -86 -58q-37 -39 -58 -86q-21 -49 -21 -105t21 -105q21 -47 58 -86q36 -36 86 -58q49 -21 105 -21t105 21q50 22 86 58q7 7 19 21l-160 159l57 57l242 -241l-57 -57l-25 25q-90 -105 -228 -120v-111h-80
v111q-131 15 -220 114t-89 233q0 145 102.5 247.5t247.5 102.5q139 0 240 -95z" />
    <glyph glyph-name="gcommaaccent" unicode="&#x123;" horiz-adv-x="819" 
d="M650 605l-54 -59q-34 33 -81 53q-49 21 -105 21t-105 -21q-50 -22 -86 -58q-37 -39 -58 -86q-21 -49 -21 -105t21 -105q21 -47 58 -86q36 -36 86 -58q49 -21 105 -21t105 21q50 22 86 58q7 7 19 21l-160 159l57 57l242 -241l-57 -57l-25 25q-90 -105 -228 -120v-111h-80
v111q-131 15 -220 114t-89 233q0 145 102.5 247.5t247.5 102.5q139 0 240 -95z" />
    <glyph glyph-name="Hbar" unicode="&#x126;" horiz-adv-x="708" 
d="M531 700h77v-700h-77v97h-351v-97h-80v700h80v-237h351v237zM531 177v206h-351v-206h351z" />
    <glyph glyph-name="hbar" unicode="&#x127;" horiz-adv-x="708" 
d="M531 700h77v-700h-77v97h-351v-97h-80v700h80v-237h351v237zM531 177v206h-351v-206h351z" />
    <glyph glyph-name="Imacron" unicode="&#x12a;" horiz-adv-x="340" 
d="M100 861h140v-63h-140v63zM210 0h-80v700h80v-700z" />
    <glyph glyph-name="imacron" unicode="&#x12b;" horiz-adv-x="340" 
d="M100 861h140v-63h-140v63zM210 0h-80v700h80v-700z" />
    <glyph glyph-name="Iogonek" unicode="&#x12e;" horiz-adv-x="312" 
d="M100 700h80v-700h-80v700zM248 0l-30 -77q-1 -2 -1 -6q0 -11 7.5 -18t17.5 -7h50v-63h-50q-37 0 -62.5 25.5t-25.5 62.5q0 15 4 27l22 56h68z" />
    <glyph glyph-name="iogonek" unicode="&#x12f;" horiz-adv-x="312" 
d="M100 700h80v-700h-80v700zM248 0l-30 -77q-1 -2 -1 -6q0 -11 7.5 -18t17.5 -7h50v-63h-50q-37 0 -62.5 25.5t-25.5 62.5q0 15 4 27l22 56h68z" />
    <glyph glyph-name="Idotaccent" unicode="&#x130;" horiz-adv-x="290" 
d="M145 884q23 0 39 -16t16 -39t-16 -39t-39 -16t-39 16t-16 39t16 39t39 16zM105 700h80v-700h-80v700z" />
    <glyph glyph-name="dotlessi" unicode="&#x131;" 
 />
    <glyph glyph-name="ij" unicode="&#x133;" horiz-adv-x="889" 
 />
    <glyph glyph-name="Kcommaaccent" unicode="&#x136;" horiz-adv-x="671" 
d="M181 700v-443l311 443h99l-210 -299l208 -401h-91l-169 326l-229 -326v700h81zM360 -93h-80v131l40 57l40 -77v-111z" />
    <glyph glyph-name="kcommaaccent" unicode="&#x137;" horiz-adv-x="671" 
d="M381 401l210 299h-99l-311 -443v443h-81v-700l229 326l169 -326h91zM271 -91v125l1 3l44 60l35 -66v-122h-80z" />
    <glyph glyph-name="Lacute" unicode="&#x139;" horiz-adv-x="534" 
d="M100 779l64 148h87l-64 -148h-87zM449 0h-349v700h78v-621h271v-79z" />
    <glyph glyph-name="lacute" unicode="&#x13a;" horiz-adv-x="534" 
d="M100 779l64 148h87l-64 -148h-87zM449 0h-349v700h78v-621h271v-79z" />
    <glyph glyph-name="Lcommaaccent" unicode="&#x13b;" horiz-adv-x="533" 
d="M310 -108l35 108h-245v699h78v-621h270l-15 -46l-44 -140h-79z" />
    <glyph glyph-name="lcommaaccent" unicode="&#x13c;" horiz-adv-x="533" 
d="M310 -108l35 108h-245v699h78v-621h270l-15 -46l-44 -140h-79z" />
    <glyph glyph-name="lcaron" unicode="&#x13e;" horiz-adv-x="534" 
d="M178 700v-621h271v-79h-349v700h78zM350 700v-148h-80v148h80z" />
    <glyph glyph-name="Ldot" unicode="&#x13f;" horiz-adv-x="534" 
d="M178 700v-621h271v-79h-349v700h78zM382 362q0 -22 -16 -38.5t-39 -16.5t-39 16t-16 39t16 39t39 16t39 -16.5t16 -38.5z" />
    <glyph glyph-name="ldot" unicode="&#x140;" horiz-adv-x="534" 
d="M178 700v-621h271v-79h-349v700h78zM382 362q0 -22 -16 -38.5t-39 -16.5t-39 16t-16 39t16 39t39 16t39 -16.5t16 -38.5z" />
    <glyph glyph-name="Lslash" unicode="&#x141;" horiz-adv-x="585" 
d="M151 289l-91 -70v80l91 69v332h78v-272l90 70v-80l-90 -69v-270h271v-79h-349v289z" />
    <glyph glyph-name="lslash" unicode="&#x142;" horiz-adv-x="585" 
d="M151 289l-91 -70v80l91 69v332h78v-272l90 70v-80l-90 -69v-270h271v-79h-349v289z" />
    <glyph glyph-name="Nacute" unicode="&#x143;" horiz-adv-x="708" 
d="M319 779l64 148h87l-64 -148h-87zM528 700h80v-700h-80v266l-348 270v-536h-80v700l428 -333v333z" />
    <glyph glyph-name="nacute" unicode="&#x144;" horiz-adv-x="708" 
d="M319 779l64 148h87l-64 -148h-87zM528 700h80v-700h-80v266l-348 270v-536h-80v700l428 -333v333z" />
    <glyph glyph-name="Ncommaaccent" unicode="&#x145;" horiz-adv-x="708" 
d="M528 700h80v-700h-80v266l-348 270v-536h-80v700l428 -333v333zM317 -88v176l76 -69v-107h-76z" />
    <glyph glyph-name="ncommaaccent" unicode="&#x146;" horiz-adv-x="708" 
d="M528 700h80v-700h-80v266l-348 270v-536h-80v700l428 -333v333zM317 -88v176l76 -69v-107h-76z" />
    <glyph glyph-name="Ncaron" unicode="&#x147;" horiz-adv-x="708" 
d="M354 787l-172 109l34 53l138 -88l138 88l34 -53zM528 700h80v-700h-80v266l-348 270v-536h-80v700l428 -333v333z" />
    <glyph glyph-name="ncaron" unicode="&#x148;" horiz-adv-x="708" 
d="M354 787l-172 109l34 53l138 -88l138 88l34 -53zM528 700h80v-700h-80v266l-348 270v-536h-80v700l428 -333v333z" />
    <glyph glyph-name="Eng" unicode="&#x14a;" horiz-adv-x="708" 
d="M608 700v-730q0 -67 -47.5 -114.5t-114.5 -47.5v80q34 0 58 24t24 58v296l-348 270v-536h-80v700l428 -333v333h80z" />
    <glyph glyph-name="eng" unicode="&#x14b;" horiz-adv-x="708" 
d="M608 700v-730q0 -67 -47.5 -114.5t-114.5 -47.5v80q34 0 58 24t24 58v296l-348 270v-536h-80v700l428 -333v333h80z" />
    <glyph glyph-name="Omacron" unicode="&#x14c;" horiz-adv-x="820" 
d="M480 798h-140v63h140v-63zM410 700q145 0 247.5 -102.5t102.5 -247.5t-102.5 -247.5t-247.5 -102.5t-247.5 102.5t-102.5 247.5t102.5 247.5t247.5 102.5zM410 81q112 0 190.5 79t78.5 190t-78.5 190t-190.5 79q-111 0 -189.5 -79t-78.5 -190t78.5 -190t189.5 -79z" />
    <glyph glyph-name="omacron" unicode="&#x14d;" horiz-adv-x="820" 
d="M480 798h-140v63h140v-63zM410 700q145 0 247.5 -102.5t102.5 -247.5t-102.5 -247.5t-247.5 -102.5t-247.5 102.5t-102.5 247.5t102.5 247.5t247.5 102.5zM410 81q112 0 190.5 79t78.5 190t-78.5 190t-190.5 79q-111 0 -189.5 -79t-78.5 -190t78.5 -190t189.5 -79z" />
    <glyph glyph-name="Ohungarumlaut" unicode="&#x150;" horiz-adv-x="820" 
d="M435 894l-64 -148h-87l64 148h87zM597 894l-64 -148h-87l64 148h87zM410 700q145 0 247.5 -102.5t102.5 -247.5t-102.5 -247.5t-247.5 -102.5t-247.5 102.5t-102.5 247.5t102.5 247.5t247.5 102.5zM410 81q112 0 190.5 79t78.5 190t-78.5 190t-190.5 79
q-111 0 -189.5 -79t-78.5 -190t78.5 -190t189.5 -79z" />
    <glyph glyph-name="ohungarumlaut" unicode="&#x151;" horiz-adv-x="820" 
d="M435 894l-64 -148h-87l64 148h87zM597 894l-64 -148h-87l64 148h87zM410 700q145 0 247.5 -102.5t102.5 -247.5t-102.5 -247.5t-247.5 -102.5t-247.5 102.5t-102.5 247.5t102.5 247.5t247.5 102.5zM410 81q112 0 190.5 79t78.5 190t-78.5 190t-190.5 79
q-111 0 -189.5 -79t-78.5 -190t78.5 -190t189.5 -79z" />
    <glyph glyph-name="oe" unicode="&#x153;" horiz-adv-x="834" 
d="M764 0h-354q-145 0 -247.5 102.5t-102.5 247.5t102.5 247.5t247.5 102.5h354v-80h-274v-230h274v-80h-274v-230h274v-80zM410 80v540q-56 0 -105 -21q-50 -22 -86 -58t-58 -86q-21 -49 -21 -105t21 -105q22 -50 58 -86t86 -58q49 -21 105 -21z" />
    <glyph glyph-name="Racute" unicode="&#x154;" horiz-adv-x="699" 
d="M376 779h-87l64 148h87zM100 700h226q125 0 214 -89t89 -214q0 -86 -44.5 -158t-117.5 -111l80 -128h-94l-180 287h95l57 -91q33 17 59 42q65 67 65 159q0 91 -65 158q-67 65 -158 65h-146v-620h-80v700z" />
    <glyph glyph-name="racute" unicode="&#x155;" horiz-adv-x="699" 
d="M376 779h-87l64 148h87zM100 700h226q125 0 214 -89t89 -214q0 -86 -44.5 -158t-117.5 -111l80 -128h-94l-180 287h95l57 -91q33 17 59 42q65 67 65 159q0 91 -65 158q-67 65 -158 65h-146v-620h-80v700z" />
    <glyph glyph-name="Rcommaaccent" unicode="&#x156;" horiz-adv-x="699" 
d="M100 700h226q125 0 214 -89t89 -214q0 -86 -44.5 -158t-117.5 -111l80 -128h-94l-180 287h95l57 -91q33 17 59 42q65 67 65 159q0 91 -65 158q-67 65 -158 65h-146v-620h-80v700zM277 75l76 -121v-42h-76v163z" />
    <glyph glyph-name="rcommaaccent" unicode="&#x157;" horiz-adv-x="699" 
d="M100 700h226q125 0 214 -89t89 -214q0 -86 -44.5 -158t-117.5 -111l80 -128h-94l-180 287h95l57 -91q33 17 59 42q65 67 65 159q0 91 -65 158q-67 65 -158 65h-146v-620h-80v700zM277 75l76 -121v-42h-76v163z" />
    <glyph glyph-name="Rcaron" unicode="&#x158;" horiz-adv-x="699" 
d="M326 787l-172 109l34 53l138 -88l138 88l34 -53zM100 700h226q125 0 214 -89t89 -214q0 -86 -44.5 -158t-117.5 -111l80 -128h-94l-180 287h95l57 -91q33 17 59 42q65 67 65 159q0 91 -65 158q-67 65 -158 65h-146v-620h-80v700z" />
    <glyph glyph-name="rcaron" unicode="&#x159;" horiz-adv-x="699" 
d="M326 787l-172 109l34 53l138 -88l138 88l34 -53zM100 700h226q125 0 214 -89t89 -214q0 -86 -44.5 -158t-117.5 -111l80 -128h-94l-180 287h95l57 -91q33 17 59 42q65 67 65 159q0 91 -65 158q-67 65 -158 65h-146v-620h-80v700z" />
    <glyph glyph-name="Sacute" unicode="&#x15a;" horiz-adv-x="561" 
d="M236 779l64 148h88l-64 -148h-88zM465 515h-80q0 45 -31 74q-31 31 -74 31t-74 -31q-30 -30 -30 -74q0 -43 30 -73q31 -31 74 -31q86 0 146 -60.5t60 -145.5t-60.5 -145t-145.5 -60t-145 60t-60 145h80q0 -51 37 -88q35 -37 88 -37q52 0 89 37t37 88q0 52 -37 89t-89 37
q-77 0 -130.5 54.5t-53.5 129.5q0 77 54 131t130 54t130.5 -54t54.5 -131z" />
    <glyph glyph-name="sacute" unicode="&#x15b;" horiz-adv-x="561" 
d="M236 779l64 148h88l-64 -148h-88zM465 515h-80q0 45 -31 74q-31 31 -74 31t-74 -31q-30 -30 -30 -74q0 -43 30 -73q31 -31 74 -31q86 0 146 -60.5t60 -145.5t-60.5 -145t-145.5 -60t-145 60t-60 145h80q0 -51 37 -88q35 -37 88 -37q52 0 89 37t37 88q0 52 -37 89t-89 37
q-77 0 -130.5 54.5t-53.5 129.5q0 77 54 131t130 54t130.5 -54t54.5 -131z" />
    <glyph glyph-name="Scedilla" unicode="&#x15e;" horiz-adv-x="560" 
d="M465 516h-78q0 44 -31.5 75t-75.5 31t-75 -31t-31 -75t31 -75t75 -31q85 0 145 -60t60 -145q0 -76 -49.5 -133.5t-122.5 -69.5l-2 -4q44 -25 44 -76q0 -37 -26 -62.5t-62 -25.5h-63l29 63h34q11 0 18 7.5t7 17.5t-7.5 17t-17.5 7h-49l26 57q-73 13 -121 70t-48 132h79
q0 -53 37 -90t89 -37t89.5 37t37.5 90t-37.5 90t-89.5 37q-76 0 -130 54t-54 130t54 130t130 54q77 0 131 -54t54 -130z" />
    <glyph glyph-name="scedilla" unicode="&#x15f;" horiz-adv-x="560" 
d="M465 516h-78q0 44 -31.5 75t-75.5 31t-75 -31t-31 -75t31 -75t75 -31q85 0 145 -60t60 -145q0 -76 -49.5 -133.5t-122.5 -69.5l-2 -4q44 -25 44 -76q0 -37 -26 -62.5t-62 -25.5h-63l29 63h34q11 0 18 7.5t7 17.5t-7.5 17t-17.5 7h-49l26 57q-73 13 -121 70t-48 132h79
q0 -53 37 -90t89 -37t89.5 37t37.5 90t-37.5 90t-89.5 37q-76 0 -130 54t-54 130t54 130t130 54q77 0 131 -54t54 -130z" />
    <glyph glyph-name="Scaron" unicode="&#x160;" horiz-adv-x="560" 
d="M280 787l-172 109l34 53l138 -88l138 88l34 -53zM465 516h-78q0 44 -31.5 75t-75.5 31t-75 -31t-31 -75t31 -75t75 -31q85 0 145 -60t60 -145t-60 -145t-145 -60t-145 60t-60 145h79q0 -53 37 -90t89 -37t89.5 37t37.5 90t-37.5 90t-89.5 37q-76 0 -130 54t-54 130
t54 130t130 54q77 0 131 -54t54 -130z" />
    <glyph glyph-name="scaron" unicode="&#x161;" horiz-adv-x="560" 
d="M280 787l-172 109l34 53l138 -88l138 88l34 -53zM465 516h-78q0 44 -31.5 75t-75.5 31t-75 -31t-31 -75t31 -75t75 -31q85 0 145 -60t60 -145t-60 -145t-145 -60t-145 60t-60 145h79q0 -53 37 -90t89 -37t89.5 37t37.5 90t-37.5 90t-89.5 37q-76 0 -130 54t-54 130
t54 130t130 54q77 0 131 -54t54 -130z" />
    <glyph glyph-name="Tcedilla" unicode="&#x162;" horiz-adv-x="494" 
d="M287 620v-620h19q37 0 62.5 -25.5t25.5 -62.5q0 -36 -25.5 -61.5t-62.5 -25.5h-76l31 63h45q10 0 17.5 7t7.5 17t-7.5 17.5t-17.5 7.5h-99v683h-137v80h354v-80h-137z" />
    <glyph glyph-name="tcedilla" unicode="&#x163;" horiz-adv-x="494" 
d="M287 620v-620h19q37 0 62.5 -25.5t25.5 -62.5q0 -36 -25.5 -61.5t-62.5 -25.5h-76l31 63h45q10 0 17.5 7t7.5 17t-7.5 17.5t-17.5 7.5h-99v683h-137v80h354v-80h-137z" />
    <glyph glyph-name="Tcaron" unicode="&#x164;" horiz-adv-x="494" 
d="M419 896l-172 -109l-172 109l34 53l138 -88l138 88zM70 700h354v-80h-137v-620h-80v620h-137v80z" />
    <glyph glyph-name="tcaron" unicode="&#x165;" horiz-adv-x="494" 
d="M419 896l-172 -109l-172 109l34 53l138 -88l138 88zM70 700h354v-80h-137v-620h-80v620h-137v80z" />
    <glyph glyph-name="Tbar" unicode="&#x166;" horiz-adv-x="494" 
d="M207 504v116h-137v80h354v-80h-137v-116h137v-63h-137v-441h-80v441h-137v63h137z" />
    <glyph glyph-name="tbar" unicode="&#x167;" horiz-adv-x="494" 
d="M207 504v116h-137v80h354v-80h-137v-116h137v-63h-137v-441h-80v441h-137v63h137z" />
    <glyph glyph-name="Umacron" unicode="&#x16a;" horiz-adv-x="781" 
d="M320 858h140v-63h-140v63zM100 699h76v-407q0 -88 63 -151t151 -63t151 63t63 151v407h77v-407q0 -121 -85 -206.5t-206 -85.5t-205.5 85.5t-84.5 206.5v407z" />
    <glyph glyph-name="umacron" unicode="&#x16b;" horiz-adv-x="781" 
d="M320 858h140v-63h-140v63zM100 699h76v-407q0 -88 63 -151t151 -63t151 63t63 151v407h77v-407q0 -121 -85 -206.5t-206 -85.5t-205.5 85.5t-84.5 206.5v407z" />
    <glyph glyph-name="Uring" unicode="&#x16e;" horiz-adv-x="781" 
d="M311 831q0 33 23 56.5t57 23.5q33 0 56.5 -23.5t23.5 -56.5t-23.5 -56.5t-56.5 -23.5q-34 0 -57 23.5t-23 56.5zM436 831q0 19 -13.5 32t-31.5 13q-19 0 -32 -13t-13 -32t13 -32t32 -13q18 0 31.5 13t13.5 32zM100 699h77v-407q0 -88 62.5 -151t151.5 -63q88 0 150.5 63
t62.5 151v407h77v-407q0 -121 -85 -206.5t-205 -85.5q-121 0 -206 85.5t-85 206.5v407z" />
    <glyph glyph-name="uring" unicode="&#x16f;" horiz-adv-x="781" 
d="M311 831q0 33 23 56.5t57 23.5q33 0 56.5 -23.5t23.5 -56.5t-23.5 -56.5t-56.5 -23.5q-34 0 -57 23.5t-23 56.5zM436 831q0 19 -13.5 32t-31.5 13q-19 0 -32 -13t-13 -32t13 -32t32 -13q18 0 31.5 13t13.5 32zM100 699h77v-407q0 -88 62.5 -151t151.5 -63q88 0 150.5 63
t62.5 151v407h77v-407q0 -121 -85 -206.5t-205 -85.5q-121 0 -206 85.5t-85 206.5v407z" />
    <glyph glyph-name="Uhungarumlaut" unicode="&#x170;" horiz-adv-x="781" 
d="M417 893l-64 -148h-87l64 148h87zM579 893l-64 -148h-87l64 148h87zM100 699h77v-407q0 -88 62.5 -151t151.5 -63q88 0 150.5 63t62.5 151v407h77v-407q0 -121 -85 -206.5t-205 -85.5q-121 0 -206 85.5t-85 206.5v407z" />
    <glyph glyph-name="uhungarumlaut" unicode="&#x171;" horiz-adv-x="781" 
d="M417 893l-64 -148h-87l64 148h87zM579 893l-64 -148h-87l64 148h87zM100 699h77v-407q0 -88 62.5 -151t151.5 -63q88 0 150.5 63t62.5 151v407h77v-407q0 -121 -85 -206.5t-205 -85.5q-121 0 -206 85.5t-85 206.5v407z" />
    <glyph glyph-name="Uogonek" unicode="&#x172;" horiz-adv-x="781" 
d="M681 700v-408q0 -113 -75 -196t-186 -94l-31 -79q-1 -2 -1 -7q0 -10 7 -17.5t18 -7.5h50v-63h-50q-37 0 -62.5 26t-25.5 62q0 15 4 27v1l24 59q-108 14 -180.5 96.5t-72.5 192.5v408h77v-408q0 -88 62.5 -151t151.5 -63q88 0 150.5 63t62.5 151v408h77z" />
    <glyph glyph-name="uogonek" unicode="&#x173;" horiz-adv-x="781" 
d="M681 700v-408q0 -113 -75 -196t-186 -94l-31 -79q-1 -2 -1 -7q0 -10 7 -17.5t18 -7.5h50v-63h-50q-37 0 -62.5 26t-25.5 62q0 15 4 27v1l24 59q-108 14 -180.5 96.5t-72.5 192.5v408h77v-408q0 -88 62.5 -151t151.5 -63q88 0 150.5 63t62.5 151v408h77z" />
    <glyph glyph-name="Wcircumflex" unicode="&#x174;" horiz-adv-x="878" 
d="M176 803v69l131 61l131 -61v-69l-131 60zM260 324l-220 376h93l173 -297l174 297h93l-220 -376l96 -165l316 541h93l-409 -700l-143 245l-143 -245h-93z" />
    <glyph glyph-name="wcircumflex" unicode="&#x175;" horiz-adv-x="878" 
d="M176 803v69l131 61l131 -61v-69l-131 60zM260 324l-220 376h93l173 -297l174 297h93l-220 -376l96 -165l316 541h93l-409 -700l-143 245l-143 -245h-93z" />
    <glyph glyph-name="Ycircumflex" unicode="&#x176;" horiz-adv-x="625" 
d="M313 864l-131 -61l-27 57l158 73l157 -73l-27 -57zM516 700h89l-252 -519v-181h-80v181l-253 519h89l204 -419z" />
    <glyph glyph-name="ycircumflex" unicode="&#x177;" horiz-adv-x="625" 
d="M313 864l-131 -61l-27 57l158 73l157 -73l-27 -57zM516 700h89l-252 -519v-181h-80v181l-253 519h89l204 -419z" />
    <glyph glyph-name="Ydieresis" unicode="&#x178;" horiz-adv-x="625" 
d="M287 821q0 -23 -16 -39t-39 -16q-22 0 -38.5 16t-16.5 39t16.5 39t38.5 16q23 0 39 -16t16 -39zM448 821q0 -23 -16 -39t-39 -16t-39 16t-16 39t16 39t39 16t39 -16t16 -39zM516 700h89l-252 -519v-181h-80v181l-253 519h89l204 -419z" />
    <glyph glyph-name="Zacute" unicode="&#x179;" horiz-adv-x="701" 
d="M307 779l64 148h87l-64 -148h-87zM611 83v-83h-521l372 617h-366v83h513l-371 -617h373z" />
    <glyph glyph-name="zacute" unicode="&#x17a;" horiz-adv-x="701" 
d="M307 779l64 148h87l-64 -148h-87zM611 83v-83h-521l372 617h-366v83h513l-371 -617h373z" />
    <glyph glyph-name="Zdotaccent" unicode="&#x17b;" horiz-adv-x="688" 
d="M399 829q0 -23 -16.5 -39t-38.5 -16t-38.5 16t-16.5 39t16.5 39t38.5 16t38.5 -16t16.5 -39zM90 0l368 620h-368v80h508l-367 -620h367v-80h-508z" />
    <glyph glyph-name="zdotaccent" unicode="&#x17c;" horiz-adv-x="688" 
d="M399 829q0 -23 -16.5 -39t-38.5 -16t-38.5 16t-16.5 39t16.5 39t38.5 16t38.5 -16t16.5 -39zM90 0l368 620h-368v80h508l-367 -620h367v-80h-508z" />
    <glyph glyph-name="Zcaron" unicode="&#x17d;" horiz-adv-x="701" 
d="M350 861l138 88l34 -53l-172 -109l-172 109l34 53zM238 83h373v-83h-521l372 617h-366v83h513l-297 -493z" />
    <glyph glyph-name="zcaron" unicode="&#x17e;" horiz-adv-x="701" 
d="M350 861l138 88l34 -53l-172 -109l-172 109l34 53zM238 83h373v-83h-521l372 617h-366v83h513l-297 -493z" />
    <glyph glyph-name="Scommaaccent" unicode="&#x218;" horiz-adv-x="560" 
d="M465 516h-78q0 44 -31.5 75t-75.5 31t-75 -31t-31 -75t31 -75t75 -31q85 0 145 -60t60 -145q0 -74 -47 -130.5t-118 -70.5v-113h-80v113q-71 14 -118 70.5t-47 130.5h79q0 -53 37 -90t89 -37t89.5 37t37.5 90t-37.5 90t-89.5 37q-76 0 -130 54t-54 130t54 130t130 54
q77 0 131 -54t54 -130z" />
    <glyph glyph-name="scommaaccent" unicode="&#x219;" horiz-adv-x="560" 
d="M465 516h-78q0 44 -31.5 75t-75.5 31t-75 -31t-31 -75t31 -75t75 -31q85 0 145 -60t60 -145q0 -74 -47 -130.5t-118 -70.5v-113h-80v113q-71 14 -118 70.5t-47 130.5h79q0 -53 37 -90t89 -37t89.5 37t37.5 90t-37.5 90t-89.5 37q-76 0 -130 54t-54 130t54 130t130 54
q77 0 131 -54t54 -130z" />
    <glyph glyph-name="uni021A" unicode="&#x21a;" horiz-adv-x="494" 
d="M70 700h354v-80h-137v-620h-80v620h-137v80zM207 -34h80v-97h-80v97z" />
    <glyph glyph-name="uni021B" unicode="&#x21b;" horiz-adv-x="494" 
d="M70 700h354v-80h-137v-620h-80v620h-137v80zM207 -34h80v-97h-80v97z" />
    <glyph glyph-name="circumflex" unicode="&#x2c6;" 
 />
    <glyph glyph-name="caron" unicode="&#x2c7;" 
 />
    <glyph glyph-name="breve" unicode="&#x2d8;" 
 />
    <glyph glyph-name="dotaccent" unicode="&#x2d9;" 
 />
    <glyph glyph-name="ring" unicode="&#x2da;" 
 />
    <glyph glyph-name="ogonek" unicode="&#x2db;" 
 />
    <glyph glyph-name="tilde" unicode="&#x2dc;" 
 />
    <glyph glyph-name="hungarumlaut" unicode="&#x2dd;" 
 />
    <glyph glyph-name="Wgrave" unicode="&#x1e80;" horiz-adv-x="878" 
d="M260 925h-93l106 -180h92zM260 324l-220 376h93l173 -297l174 297h93l-220 -376l96 -165l316 541h93l-409 -700l-143 245l-143 -245h-93z" />
    <glyph glyph-name="wgrave" unicode="&#x1e81;" horiz-adv-x="878" 
d="M260 925h-93l106 -180h92zM260 324l-220 376h93l173 -297l174 297h93l-220 -376l96 -165l316 541h93l-409 -700l-143 245l-143 -245h-93z" />
    <glyph glyph-name="Wacute" unicode="&#x1e82;" horiz-adv-x="878" 
d="M611 925h93l-106 -180h-92zM260 324l-220 376h93l173 -297l174 297h93l-220 -376l96 -165l316 541h93l-409 -700l-143 245l-143 -245h-93z" />
    <glyph glyph-name="wacute" unicode="&#x1e83;" horiz-adv-x="878" 
d="M611 925h93l-106 -180h-92zM260 324l-220 376h93l173 -297l174 297h93l-220 -376l96 -165l316 541h93l-409 -700l-143 245l-143 -245h-93z" />
    <glyph glyph-name="Wdieresis" unicode="&#x1e84;" horiz-adv-x="878" 
d="M281 829q0 -23 -16 -39t-39 -16q-22 0 -38.5 16t-16.5 39t16.5 39t38.5 16q23 0 39 -16t16 -39zM442 829q0 -23 -16 -39t-39 -16t-39 16t-16 39t16 39t39 16t39 -16t16 -39zM260 324l-220 376h93l173 -297l174 297h93l-220 -376l96 -165l316 541h93l-409 -700l-143 245
l-143 -245h-93z" />
    <glyph glyph-name="wdieresis" unicode="&#x1e85;" horiz-adv-x="878" 
d="M281 829q0 -23 -16 -39t-39 -16q-22 0 -38.5 16t-16.5 39t16.5 39t38.5 16q23 0 39 -16t16 -39zM442 829q0 -23 -16 -39t-39 -16t-39 16t-16 39t16 39t39 16t39 -16t16 -39zM260 324l-220 376h93l173 -297l174 297h93l-220 -376l96 -165l316 541h93l-409 -700l-143 245
l-143 -245h-93z" />
    <glyph glyph-name="Ygrave" unicode="&#x1ef2;" horiz-adv-x="625" 
d="M109 700h-89l252 -519v-181h80v181l253 519h-89l-204 -419zM340 545l-75 155h-70l75 -155h70z" />
    <glyph glyph-name="ygrave" unicode="&#x1ef3;" horiz-adv-x="625" 
d="M109 700h-89l252 -519v-181h80v181l253 519h-89l-204 -419zM340 545l-75 155h-70l75 -155h70z" />
    <glyph glyph-name="endash" unicode="&#x2013;" horiz-adv-x="416" 
d="M336 314v73h-256v-73h256z" />
    <glyph glyph-name="emdash" unicode="&#x2014;" horiz-adv-x="546" 
d="M466 310h-386v80h386v-80z" />
    <glyph glyph-name="quoteleft" unicode="&#x2018;" horiz-adv-x="221" 
d="M80 525h61v175h-61v-175z" />
    <glyph glyph-name="quoteright" unicode="&#x2019;" horiz-adv-x="221" 
d="M80 525h61v175h-61v-175z" />
    <glyph glyph-name="quotesinglbase" unicode="&#x201a;" 
 />
    <glyph glyph-name="quotedblleft" unicode="&#x201c;" horiz-adv-x="325" 
d="M143 525h-63v175h63v-175zM182 700h63v-175h-63v175z" />
    <glyph glyph-name="quotedblright" unicode="&#x201d;" horiz-adv-x="325" 
d="M143 525h-63v175h63v-175zM182 700h63v-175h-63v175z" />
    <glyph glyph-name="quotedblbase" unicode="&#x201e;" 
 />
    <glyph glyph-name="dagger" unicode="&#x2020;" 
 />
    <glyph glyph-name="daggerdbl" unicode="&#x2021;" 
 />
    <glyph glyph-name="bullet" unicode="&#x2022;" horiz-adv-x="270" 
d="M80 350q0 22 16 38.5t39 16.5t39 -16.5t16 -38.5t-16 -38.5t-39 -16.5t-39 16.5t-16 38.5z" />
    <glyph glyph-name="ellipsis" unicode="&#x2026;" 
 />
    <glyph glyph-name="perthousand" unicode="&#x2030;" 
 />
    <glyph glyph-name="guilsinglleft" unicode="&#x2039;" horiz-adv-x="442" 
d="M60 350l312 180v-92l-152 -88l152 -88v-92z" />
    <glyph glyph-name="guilsinglright" unicode="&#x203a;" horiz-adv-x="442" 
d="M70 530l312 -180l-312 -180v92l152 88l-152 88v92z" />
    <glyph glyph-name="fraction" unicode="&#x2044;" 
 />
    <glyph glyph-name="Euro" unicode="&#x20ac;" horiz-adv-x="667" 
d="M567 138l50 -62q-93 -76 -217 -76q-145 0 -247.5 102.5t-102.5 247.5t102.5 247.5t247.5 102.5q121 0 217 -75l-49 -63q-27 21 -63 37q-49 21 -105 21t-105 -21q-50 -22 -86 -58t-58 -86q0 -1 -1 -2h172l64 -80h-255q-1 -8 -1 -23q0 -22 3 -43h305l64 -80h-343
q19 -38 50 -68q36 -36 86 -58q49 -21 105 -21t105 21q34 15 62 37z" />
    <glyph glyph-name="trademark" unicode="&#x2122;" horiz-adv-x="1266" 
 />
    <glyph glyph-name="partialdiff" unicode="&#x2202;" 
 />
    <glyph glyph-name="emptyset" unicode="&#x2205;" horiz-adv-x="800" 
d="M750 658l-82 -83q82 -98 82 -225q0 -145 -102.5 -247.5t-247.5 -102.5q-127 0 -225 82l-82 -82l-43 43l82 82q-82 98 -82 225q0 145 102.5 247.5t247.5 102.5q129 0 225 -82l83 82zM190 183l378 377q-73 59 -168 59q-111 0 -189.5 -79t-78.5 -190q0 -93 58 -167zM610 518
l-377 -378q72 -59 167 -59q112 0 190.5 79t78.5 190q0 95 -59 168z" />
    <glyph glyph-name="product" unicode="&#x220f;" 
 />
    <glyph glyph-name="summation" unicode="&#x2211;" 
 />
    <glyph glyph-name="minus" unicode="&#x2212;" horiz-adv-x="416" 
d="M336 390v-80h-256v80h256z" />
    <glyph glyph-name="radical" unicode="&#x221a;" 
 />
    <glyph glyph-name="infinity" unicode="&#x221e;" 
 />
    <glyph glyph-name="integral" unicode="&#x222b;" 
 />
    <glyph glyph-name="approxequal" unicode="&#x2248;" horiz-adv-x="471" 
d="M282 488l109 -56l-29 -56l-80 41l-94 -48l-108 55l29 56l79 -40zM282 332l109 -57l-29 -56l-80 41l-94 -48l-108 55l29 57l79 -41z" />
    <glyph glyph-name="notequal" unicode="&#x2260;" 
 />
    <glyph glyph-name="lessequal" unicode="&#x2264;" 
 />
    <glyph glyph-name="greaterequal" unicode="&#x2265;" 
 />
    <glyph glyph-name="lozenge" unicode="&#x25ca;" 
 />
    <glyph glyph-name="zero.osf" 
 />
    <glyph glyph-name="one.osf" 
 />
    <glyph glyph-name="two.osf" 
 />
    <glyph glyph-name="three.osf" 
 />
    <glyph glyph-name="four.osf" 
 />
    <glyph glyph-name="five.osf" 
 />
    <glyph glyph-name="six.osf" 
 />
    <glyph glyph-name="seven.osf" 
 />
    <glyph glyph-name="eight.osf" 
 />
    <glyph glyph-name="nine.osf" 
 />
  </font>
</defs>
</svg>
