<?xml version="1.0" standalone="no"?>
<!DOCTYPE svg PUBLIC "-//W3C//DTD SVG 1.1//EN" "http://www.w3.org/Graphics/SVG/1.1/DTD/svg11.dtd" >
<svg xmlns="http://www.w3.org/2000/svg" xmlns:xlink="http://www.w3.org/1999/xlink" version="1.1">
<metadata>
Created by FontForge 20170731 at Mon Aug 19 06:50:00 2013
 By Aleksey,,,
copyright missing
</metadata>
<defs>
<font id="Recorda-Normal" horiz-adv-x="600" >
  <font-face 
    font-family="Recorda Normal"
    font-weight="400"
    font-stretch="normal"
    units-per-em="1000"
    panose-1="0 0 5 0 0 0 0 0 0 0"
    ascent="800"
    descent="-200"
    x-height="699"
    cap-height="700"
    bbox="0 -200 858 943"
    underline-thickness="50"
    underline-position="-200"
    unicode-range="U+0020-25CA"
  />
<missing-glyph horiz-adv-x="500" 
d="M500 700v-700h-500v700h500zM420 650h-340l170 -255zM50 95l170 255l-170 255v-510zM450 95v510l-170 -255zM420 50l-170 255l-170 -255h340z" />
    <glyph glyph-name=".notdef" horiz-adv-x="500" 
d="M500 700v-700h-500v700h500zM420 650h-340l170 -255zM50 95l170 255l-170 255v-510zM450 95v510l-170 -255zM420 50l-170 255l-170 -255h340z" />
    <glyph glyph-name=".null" horiz-adv-x="0" 
 />
    <glyph glyph-name="nonmarkingreturn" horiz-adv-x="333" 
 />
    <glyph glyph-name="space" unicode=" " horiz-adv-x="500" 
 />
    <glyph glyph-name="exclam" unicode="!" horiz-adv-x="220" 
d="M135 700h-50v-559h50v559zM150 40q0 16 -12 28t-28 12t-28 -12t-12 -28t12 -28t28 -12t28 12t12 28z" />
    <glyph glyph-name="quotedbl" unicode="&#x22;" horiz-adv-x="284" 
d="M80 700h43v-175h-43v175zM161 700h43v-175h-43v175z" />
    <glyph glyph-name="numbersign" unicode="#" horiz-adv-x="573" 
d="M513 175h-119l-36 -175h-51l36 175h-160l-35 -175h-51l78 386h-125l10 50h125l36 175h51l-36 -175h160l36 175h51l-79 -386h119zM353 225l33 161h-160l-33 -161h160z" />
    <glyph glyph-name="dollar" unicode="$" horiz-adv-x="536" 
d="M445 521h-50q0 53 -37 90t-90 37q-52 0 -89 -37q-38 -38 -38 -90t38 -90q37 -37 89 -37q82 0 140 -58t58 -140q0 -75 -49.5 -131t-123.5 -65v-89h-50v89q-73 9 -123 65t-50 131h50q0 -60 44 -104t104 -44q61 0 105 44q43 43 43 104q0 62 -43 105t-105 43q-75 0 -126 53
t-51 124q0 66 43.5 116t108.5 59v90h50v-90q65 -9 108.5 -59t43.5 -116z" />
    <glyph glyph-name="percent" unicode="%" horiz-adv-x="778" 
d="M209 700q62 0 106 -43.5t44 -105.5t-44 -106t-106 -44t-105.5 44t-43.5 106q0 61 44 105t105 44zM616 700l-399 -700h-57l399 700h57zM209 650q-41 0 -70 -29t-29 -70t29 -70.5t70 -29.5t70.5 29.5t29.5 70.5t-29.5 70t-70.5 29zM569 299q62 0 105.5 -44t43.5 -106
q0 -61 -44 -105t-105 -44t-105 44t-44 105q0 62 43.5 106t105.5 44zM569 249q-41 0 -70 -29.5t-29 -70.5t29 -70t70 -29t70 29t29 70t-29 70.5t-70 29.5z" />
    <glyph glyph-name="ampersand" unicode="&#x26;" horiz-adv-x="677" 
d="M347 348l153 -218l79 55l28 -41l-139 -98q-88 -61 -190 -42.5t-162 103.5t-42 188.5t103 163.5l21 14l-98 140l77 54q64 43 135.5 30t114.5 -73q43 -61 30 -134t-74 -116zM318 389l37 26q44 31 53 84q8 54 -22 96q-31 44 -84 53q-52 9 -96 -22l-37 -25zM227 432l-21 -14
q-69 -49 -83 -131q-14 -83 34 -151q49 -69 131 -83q83 -14 151 34l20 14z" />
    <glyph glyph-name="quotesingle" unicode="'" horiz-adv-x="221" 
d="M141 700h-61v-175h61v175z" />
    <glyph glyph-name="parenleft" unicode="(" horiz-adv-x="648" 
d="M298 45l-22 -45q-94 52 -150 145.5t-56 204.5t56 204.5t150 145.5l22 -45q-37 -20 -76 -57q-47 -47 -75 -112q-27 -64 -27 -136t27 -136q27 -62 75 -112q39 -37 76 -57z" />
    <glyph glyph-name="parenright" unicode=")" horiz-adv-x="648" 
d="M350 45l22 -45q94 52 150 145.5t56 204.5t-56 204.5t-150 145.5l-22 -45q37 -20 76 -57q47 -47 75 -112q27 -64 27 -136t-27 -136q-27 -62 -75 -112q-39 -37 -76 -57z" />
    <glyph glyph-name="asterisk" unicode="*" horiz-adv-x="535" 
d="M361 700l94 -162l-94 -163h-187l-94 163l94 162h187zM190 669l3 1h-2zM208 670l60 -102l59 102h-119zM123 553h119l-60 102zM412 553l-59 102l-59 -102h118zM182 420l60 103h-119zM412 523h-118l59 -103zM327 405l-59 103l-60 -103h119z" />
    <glyph glyph-name="plus" unicode="+" horiz-adv-x="641" 
d="M345 375h226v-50h-226v-225h-50v225h-225v50h225v225h50v-225z" />
    <glyph glyph-name="comma" unicode="," horiz-adv-x="268" 
d="M80 -89l52 178h56l-52 -178h-56z" />
    <glyph glyph-name="hyphen" unicode="-" horiz-adv-x="416" 
d="M336 375v-50h-256v50h256z" />
    <glyph glyph-name="period" unicode="." horiz-adv-x="240" 
d="M160 40q0 16 -12 28t-28 12t-28 -12t-12 -28t12 -28t28 -12t28 12t12 28z" />
    <glyph glyph-name="slash" unicode="/" horiz-adv-x="409" 
d="M60 0l236 700h53l-236 -700h-53z" />
    <glyph glyph-name="zero" unicode="0" horiz-adv-x="820" 
d="M410 700q145 0 247.5 -102.5t102.5 -247.5t-102.5 -247.5t-247.5 -102.5t-247.5 102.5t-102.5 247.5t102.5 247.5t247.5 102.5zM216 579l423 -423q30 34 48 77q23 57 23 117t-23 117q-26 58 -65 95q-39 41 -95 64q-55 24 -117 24t-117 -24q-42 -16 -77 -47zM604 121
l-423 423q-31 -35 -47 -77q-24 -55 -24 -117t24 -117q24 -57 64 -95q38 -40 95 -64q55 -24 117 -24t117 24q42 16 77 47z" />
    <glyph glyph-name="one" unicode="1" horiz-adv-x="347" 
d="M247 700v-700h-50v650h-127v50h177z" />
    <glyph glyph-name="two" unicode="2" horiz-adv-x="576" 
d="M506 50h-316l258 294q56 61 56 144q0 88 -62 150t-150 62t-150 -62t-62 -150h50q0 67 47.5 114.5t114.5 47.5t114.5 -47.5t47.5 -114.5q0 -64 -43 -110l-331 -378h426v50z" />
    <glyph glyph-name="three" unicode="3" horiz-adv-x="676" 
d="M602 700l-163 -163q79 -31 128 -101.5t49 -157.5q0 -115 -81.5 -196.5t-196.5 -81.5q-114 0 -195 80t-83 193h50q0 -42 17 -84q18 -41 49 -72q33 -33 73 -49q42 -18 89 -18q46 0 88 18q41 16 73 49q31 31 49 72q18 46 18 89t-18 89q-18 41 -49 72q-32 32 -73 49
q-12 6 -26 9l-165 -165v71l247 247h-324l50 50h394z" />
    <glyph glyph-name="four" unicode="4" horiz-adv-x="621" 
d="M504 0l-66 118h-378l313 582h57l-128 -237l259 -463h-57zM274 411l-131 -243h267z" />
    <glyph glyph-name="five" unicode="5" horiz-adv-x="597" 
d="M180 511h102q106 0 180.5 -74.5t74.5 -180.5t-74.5 -181t-180.5 -75q-101 0 -176 70l24 47l6 -7q60 -60 146 -60q85 0 145 60t60 146q0 85 -60 145t-145 60h-129l-49 -93l-44 22l162 310h210v-50h-180z" />
    <glyph glyph-name="six" unicode="6" horiz-adv-x="659" 
d="M338 700l-113 -182q49 21 105 21q112 0 190.5 -79t78.5 -190q0 -112 -78.5 -191t-190.5 -79t-191 79t-79 191q0 72 41 141l178 289h59zM485 114q64 64 64 156q0 91 -64 155t-155 64t-155 -64q-65 -65 -65 -155q0 -91 65 -156q64 -64 155 -64t155 64z" />
    <glyph glyph-name="seven" unicode="7" horiz-adv-x="582" 
d="M522 700l-269 -700h-54l250 650h-389v50h462z" />
    <glyph glyph-name="eight" unicode="8" horiz-adv-x="586" 
d="M384 426q59 -27 95.5 -81.5t36.5 -121.5q0 -92 -65.5 -157.5t-157.5 -65.5t-157.5 65.5t-65.5 157.5q0 67 36.5 121.5t95.5 81.5q-61 46 -61 122q0 63 44.5 107.5t107.5 44.5t107.5 -44.5t44.5 -107.5q0 -76 -61 -122zM293 650q-42 0 -72 -30t-30 -72q0 -43 30 -72.5
t72 -29.5t72 29.5t30 72.5q0 42 -30 72t-72 30zM415 101q51 49 51 122q0 71 -51 122q-49 51 -122 51t-122 -51q-51 -51 -51 -122q0 -73 51 -122q49 -51 122 -51t122 51z" />
    <glyph glyph-name="nine" unicode="9" horiz-adv-x="659" 
d="M321 0l113 182q-48 -21 -104 -21q-112 0 -191 79t-79 191q0 111 79 190t191 79q111 0 190 -79t79 -190q0 -76 -40 -142l-179 -289h-59zM174 586q-64 -66 -64 -155q0 -90 64 -156q66 -64 156 -64q89 0 155 64q64 66 64 156q0 89 -64 155q-66 64 -155 64q-90 0 -156 -64z
" />
    <glyph glyph-name="colon" unicode=":" horiz-adv-x="240" 
d="M160 452q0 16 -12 28t-28 12t-28 -12t-12 -28t12 -28t28 -12t28 12t12 28zM160 249q0 17 -12 28.5t-28 11.5t-28 -11.5t-12 -28.5t12 -28.5t28 -11.5t28 11.5t12 28.5z" />
    <glyph glyph-name="semicolon" unicode=";" horiz-adv-x="246" 
d="M176 475q0 17 -12 28.5t-28 11.5t-28 -11.5t-12 -28.5t12 -28.5t28 -11.5t28 11.5t12 28.5zM70 185l38 128h57l-38 -128h-57z" />
    <glyph glyph-name="less" unicode="&#x3c;" horiz-adv-x="415" 
d="M345 186l-285 165l285 164v-58l-185 -106l185 -107v-58z" />
    <glyph glyph-name="equal" unicode="=" horiz-adv-x="554" 
d="M80 458h394v-50h-394v50zM80 292h394v-50h-394v50z" />
    <glyph glyph-name="greater" unicode="&#x3e;" horiz-adv-x="415" 
d="M70 186l285 164l-285 164v-57l185 -107l-185 -107v-57z" />
    <glyph glyph-name="question" unicode="?" horiz-adv-x="533" 
d="M401 357l-2 -1l-9 -8q-8 -7 -22.5 -22t-27.5 -32q-57 -77 -57 -149h-50q0 49 22 101q15 36 46 79q19 24 42 47l-273 176l6 19q20 51 55 82q40 36 91 46q80 18 150 -27q69 -46 86 -125q12 -50 -4 -102q-17 -50 -53 -84zM131 568l249 -160q16 21 26 48q12 38 3 76
q-13 61 -64 94q-52 33 -112 21q-39 -9 -68 -35q-19 -18 -34 -44zM258 80q16 0 28 -12t12 -28t-12 -28t-28 -12t-28 12t-12 28t12 28t28 12z" />
    <glyph glyph-name="at" unicode="@" horiz-adv-x="820" 
d="M695 556v-1q65 -92 65 -205q0 -145 -102.5 -247.5t-247.5 -102.5t-247.5 102.5t-102.5 247.5t102.5 247.5t247.5 102.5q86 0 160 -38t122 -104zM637 547l-14 15q-41 41 -96 64q-55 24 -117 24q-60 0 -116 -24q-55 -23 -96 -64t-64 -95q-24 -55 -24 -117t24 -117
q23 -54 64 -95t96 -64q56 -24 116 -24q13 0 19 1l43 103q-27 -10 -62 -10q-86 0 -146 60t-60 146t60 146t146 60q59 0 108.5 -31t75.5 -82zM502 224l62 149q-6 49 -44 87q-44 46 -110 46t-110 -46q-46 -44 -46 -110t46 -110q44 -46 110 -46q52 0 92 30zM671 499l-184 -439
q25 7 40 14q55 23 96 64t64 95q23 53 23 117t-23 117q-7 16 -16 32z" />
    <glyph glyph-name="A" unicode="A" horiz-adv-x="650" 
d="M75 0h-55l305 700l305 -700h-55l-49 112h-402zM145 162h360l-180 412z" />
    <glyph glyph-name="B" unicode="B" horiz-adv-x="682" 
d="M100 700h146q78 0 133.5 -55t55.5 -133q0 -42 -17 -79q80 -11 134.5 -72t54.5 -143q0 -91 -64 -154.5t-154 -63.5h-289v700zM150 373h96q59 0 98 41q41 41 41 98q0 55 -41 98q-40 40 -98 40h-96v-277zM150 50h239q71 0 118 49q50 50 50 119q0 70 -50 118q-47 49 -118 49
h-3q-55 -62 -140 -62h-96v-273z" />
    <glyph glyph-name="C" unicode="C" horiz-adv-x="730" 
d="M626 132l33 -37q-100 -95 -239 -95q-145 0 -247.5 102.5t-102.5 247.5t102.5 247.5t247.5 102.5q139 0 240 -95l-34 -37q-38 36 -89 58q-55 24 -117 24t-117 -24q-56 -23 -95 -64q-39 -37 -65 -95q-23 -57 -23 -117t23 -117q26 -58 65 -95q39 -41 95 -64q55 -24 117 -24
t117 24q51 22 89 58z" />
    <glyph glyph-name="D" unicode="D" horiz-adv-x="776" 
d="M100 700h266q145 0 247.5 -102.5t102.5 -247.5t-102.5 -247.5t-247.5 -102.5h-266v700zM150 50h216q62 0 117 24q56 23 95 64q41 40 65 95q23 57 23 117t-23 117q-24 55 -65 95q-39 41 -95 64q-55 24 -117 24h-216v-600z" />
    <glyph glyph-name="E" unicode="E" horiz-adv-x="505" 
d="M420 700v-50h-335v50h335zM420 325h-335v50h335v-50zM420 0h-335v50h335v-50z" />
    <glyph glyph-name="F" unicode="F" horiz-adv-x="520" 
d="M100 700h335v-50h-285v-275h285v-50h-285v-325h-50v700z" />
    <glyph glyph-name="G" unicode="G" horiz-adv-x="819" 
d="M724 98l-38 37q-49 -63 -121.5 -99t-154.5 -36q-145 0 -247.5 102.5t-102.5 247.5t102.5 247.5t247.5 102.5q139 0 240 -95l-33 -37q-40 37 -90 58q-55 24 -117 24t-117 -24q-54 -23 -95 -64q-40 -38 -64 -95q-24 -55 -24 -117t24 -117q24 -57 64 -95q41 -41 95 -64
q55 -24 117 -24t117 24q56 23 95 64q13 12 29 33l-187 185h71l224 -223z" />
    <glyph glyph-name="H" unicode="H" horiz-adv-x="685" 
d="M585 0h-50v112h-385v-112h-50v700h50v-538h385v538h50v-700z" />
    <glyph glyph-name="I" unicode="I" horiz-adv-x="270" 
d="M110 0h50v700h-50v-700z" />
    <glyph glyph-name="J" unicode="J" horiz-adv-x="644" 
d="M544 700v-457q0 -101 -71 -172t-172 -71q-94 0 -163.5 63.5t-77.5 156.5h50q8 -67 55 -114q58 -56 136 -56q79 0 137 56q56 58 56 137v407h-193l12 25l10 25h221z" />
    <glyph glyph-name="K" unicode="K" horiz-adv-x="669" 
d="M100 700h50v-541l378 541h61l-214 -306l207 -394h-56l-183 348l-243 -348v700z" />
    <glyph glyph-name="L" unicode="L" horiz-adv-x="520" 
d="M100 0v700h50v-650h285v-50h-335z" />
    <glyph glyph-name="M" unicode="M" horiz-adv-x="788" 
d="M638 0v565l-244 -259l-244 265v-571h-50v700l294 -321l294 312v-691h-50z" />
    <glyph glyph-name="N" unicode="N" horiz-adv-x="686" 
d="M536 700h50v-700h-50v301l-386 297v-598h-50v700l436 -336v336z" />
    <glyph glyph-name="O" unicode="O" horiz-adv-x="820" 
d="M410 700q145 0 247.5 -102.5t102.5 -247.5t-102.5 -247.5t-247.5 -102.5t-247.5 102.5t-102.5 247.5t102.5 247.5t247.5 102.5zM622 138q40 38 64 95q24 55 24 117t-24 117q-24 57 -64 95q-41 41 -95 64q-56 24 -117 24q-62 0 -117 -24q-56 -23 -95 -64q-39 -37 -65 -95
q-23 -57 -23 -117t23 -117q26 -58 65 -95q39 -41 95 -64q55 -24 117 -24t117 24q54 23 95 64zM410 394q18 0 31 -13t13 -31t-13 -31t-31 -13q-19 0 -31.5 13t-12.5 31t12.5 31t31.5 13z" />
    <glyph glyph-name="P" unicode="P" horiz-adv-x="665" 
d="M100 700h199q122 0 209 -86.5t87 -209.5q0 -122 -87 -209t-209 -87h-149v-108h-50v700zM150 158h149q47 0 96 19q43 19 78 53q33 33 53 78q19 49 19 96q0 48 -19 96q-20 45 -53 78t-78 53q-45 19 -96 19h-149v-492z" />
    <glyph glyph-name="Q" unicode="Q" horiz-adv-x="820" 
d="M410 700q145 0 247.5 -102.5t102.5 -247.5t-102.5 -247.5t-247.5 -102.5t-247.5 102.5t-102.5 247.5t102.5 247.5t247.5 102.5zM431 350l167 -234q24 21 25 22q41 41 64 95q23 53 23 117t-23 117q-23 54 -64 95t-96 64q-55 24 -117 24q-60 0 -116 -24q-55 -23 -96 -64
t-64 -95q-24 -55 -24 -117t24 -117q23 -54 64 -95t96 -64q56 -24 116 -24q62 0 117 24q14 5 29 14l-186 262h61z" />
    <glyph glyph-name="R" unicode="R" horiz-adv-x="688" 
d="M100 700h221q123 0 210 -87t87 -210q0 -89 -47 -161.5t-125 -108.5l83 -133h-59l-179 287h59l69 -111q43 18 77 52q32 30 53 78q19 45 19 97q0 51 -19 96q-21 47 -53 79q-36 34 -79 53q-48 19 -96 19h-171v-650h-50v700z" />
    <glyph glyph-name="S" unicode="S" horiz-adv-x="546" 
d="M450 523h-50q0 53 -37 90t-90 37t-90 -37t-37 -90t37 -90t90 -37q82 0 140 -58t58 -140t-58 -140t-140 -58t-140 58t-58 140h50q0 -60 43 -105q43 -43 105 -43t105 43q43 45 43 105t-43 105q-45 43 -105 43q-74 0 -125.5 53.5t-51.5 123.5q0 73 52 125t125 52t125 -52
t52 -125z" />
    <glyph glyph-name="T" unicode="T" horiz-adv-x="475" 
d="M405 650h-143v-650h-50v650h-142v50h335v-50z" />
    <glyph glyph-name="U" unicode="U" horiz-adv-x="767" 
d="M667 699v-415q0 -118 -83 -201t-200 -83q-118 0 -201 83t-83 201v415h50v-415q0 -49 18 -91t51 -75q32 -32 74 -50q43 -18 91 -18q47 0 91 18q40 18 74 50q32 34 50 75q18 42 18 91v415h50z" />
    <glyph glyph-name="V" unicode="V" horiz-adv-x="649" 
d="M20 700h54l250 -575l250 575h55l-305 -700z" />
    <glyph glyph-name="W" unicode="W" horiz-adv-x="878" 
d="M145 0h-58l181 309l-228 391h58l199 -342l201 342h58l-230 -391l123 -210l351 601h58l-409 -700l-152 260z" />
    <glyph glyph-name="X" unicode="X" horiz-adv-x="608" 
d="M128 700l176 -301l176 301h58l-205 -350l205 -350h-58l-176 300l-176 -300h-58l205 350l-205 350h58z" />
    <glyph glyph-name="Y" unicode="Y" horiz-adv-x="592" 
d="M322 0h-50v184l-252 516h56l221 -453l220 453h55l-250 -516v-184z" />
    <glyph glyph-name="Z" unicode="Z" horiz-adv-x="665" 
d="M575 50v-50h-485l395 650h-395v50h484l-395 -650h396z" />
    <glyph glyph-name="bracketleft" unicode="[" horiz-adv-x="375" 
d="M130 -150h145v-50h-195v1000h195v-50h-145v-900z" />
    <glyph glyph-name="backslash" unicode="\" horiz-adv-x="409" 
d="M349 0l-237 700h-52l236 -700h53z" />
    <glyph glyph-name="bracketright" unicode="]" horiz-adv-x="375" 
d="M245 -150h-145v-50h195v1000h-195v-50h145v-900z" />
    <glyph glyph-name="asciicircum" unicode="^" 
 />
    <glyph glyph-name="underscore" unicode="_" horiz-adv-x="546" 
d="M466 0h-386v50h386v-50z" />
    <glyph glyph-name="grave" unicode="`" 
 />
    <glyph glyph-name="a" unicode="a" horiz-adv-x="650" 
d="M75 0h-55l305 700l305 -700h-55l-49 112h-402zM145 162h360l-180 412z" />
    <glyph glyph-name="b" unicode="b" horiz-adv-x="682" 
d="M100 700h146q78 0 133.5 -55t55.5 -133q0 -42 -17 -79q80 -11 134.5 -72t54.5 -143q0 -91 -64 -154.5t-154 -63.5h-289v700zM150 373h96q59 0 98 41q41 41 41 98q0 55 -41 98q-40 40 -98 40h-96v-277zM150 50h239q71 0 118 49q50 50 50 119q0 70 -50 118q-47 49 -118 49
h-3q-55 -62 -140 -62h-96v-273z" />
    <glyph glyph-name="c" unicode="c" horiz-adv-x="730" 
d="M626 132l33 -37q-100 -95 -239 -95q-145 0 -247.5 102.5t-102.5 247.5t102.5 247.5t247.5 102.5q139 0 240 -95l-34 -37q-38 36 -89 58q-55 24 -117 24t-117 -24q-56 -23 -95 -64q-39 -37 -65 -95q-23 -57 -23 -117t23 -117q26 -58 65 -95q39 -41 95 -64q55 -24 117 -24
t117 24q51 22 89 58z" />
    <glyph glyph-name="d" unicode="d" horiz-adv-x="776" 
d="M100 700h266q145 0 247.5 -102.5t102.5 -247.5t-102.5 -247.5t-247.5 -102.5h-266v700zM150 50h216q62 0 117 24q56 23 95 64q41 40 65 95q23 57 23 117t-23 117q-24 55 -65 95q-39 41 -95 64q-55 24 -117 24h-216v-600z" />
    <glyph glyph-name="e" unicode="e" horiz-adv-x="519" 
d="M150 650v-275h284v-50h-284v-275h284v-50h-334v700h334v-50h-284z" />
    <glyph glyph-name="f" unicode="f" horiz-adv-x="520" 
d="M100 700h335v-50h-285v-275h285v-50h-285v-325h-50v700z" />
    <glyph glyph-name="g" unicode="g" horiz-adv-x="819" 
d="M724 98l-38 37q-49 -63 -121.5 -99t-154.5 -36q-145 0 -247.5 102.5t-102.5 247.5t102.5 247.5t247.5 102.5q139 0 240 -95l-33 -37q-40 37 -90 58q-55 24 -117 24t-117 -24q-54 -23 -95 -64q-40 -38 -64 -95q-24 -55 -24 -117t24 -117q24 -57 64 -95q41 -41 95 -64
q55 -24 117 -24t117 24q56 23 95 64q13 12 29 33l-187 185h71l224 -223z" />
    <glyph glyph-name="h" unicode="h" horiz-adv-x="685" 
d="M585 0h-50v112h-385v-112h-50v700h50v-538h385v538h50v-700z" />
    <glyph glyph-name="i" unicode="i" horiz-adv-x="270" 
d="M110 0h50v700h-50v-700z" />
    <glyph glyph-name="j" unicode="j" horiz-adv-x="644" 
d="M544 700v-457q0 -101 -71 -172t-172 -71q-94 0 -163.5 63.5t-77.5 156.5h50q8 -67 55 -114q58 -56 136 -56q79 0 137 56q56 58 56 137v407h-193l12 25l10 25h221z" />
    <glyph glyph-name="k" unicode="k" horiz-adv-x="669" 
d="M100 700h50v-541l378 541h61l-214 -306l207 -394h-56l-183 348l-243 -348v700z" />
    <glyph glyph-name="l" unicode="l" horiz-adv-x="520" 
d="M100 0v700h50v-650h285v-50h-335z" />
    <glyph glyph-name="m" unicode="m" horiz-adv-x="788" 
d="M638 0v565l-244 -259l-244 265v-571h-50v700l294 -321l294 312v-691h-50z" />
    <glyph glyph-name="n" unicode="n" horiz-adv-x="686" 
d="M536 700h50v-700h-50v301l-386 297v-598h-50v700l436 -336v336z" />
    <glyph glyph-name="o" unicode="o" horiz-adv-x="820" 
d="M410 700q145 0 247.5 -102.5t102.5 -247.5t-102.5 -247.5t-247.5 -102.5t-247.5 102.5t-102.5 247.5t102.5 247.5t247.5 102.5zM622 138q40 38 64 95q24 55 24 117t-24 117q-24 57 -64 95q-41 41 -95 64q-56 24 -117 24q-62 0 -117 -24q-56 -23 -95 -64q-39 -37 -65 -95
q-23 -57 -23 -117t23 -117q26 -58 65 -95q39 -41 95 -64q55 -24 117 -24t117 24q54 23 95 64zM410 394q18 0 31 -13t13 -31t-13 -31t-31 -13q-19 0 -31.5 13t-12.5 31t12.5 31t31.5 13z" />
    <glyph glyph-name="p" unicode="p" horiz-adv-x="665" 
d="M100 700h199q122 0 209 -86.5t87 -209.5q0 -122 -87 -209t-209 -87h-149v-108h-50v700zM150 158h149q47 0 96 19q43 19 78 53q33 33 53 78q19 49 19 96q0 48 -19 96q-20 45 -53 78t-78 53q-45 19 -96 19h-149v-492z" />
    <glyph glyph-name="q" unicode="q" horiz-adv-x="820" 
d="M410 700q145 0 247.5 -102.5t102.5 -247.5t-102.5 -247.5t-247.5 -102.5t-247.5 102.5t-102.5 247.5t102.5 247.5t247.5 102.5zM431 350l167 -234q24 21 25 22q41 41 64 95q23 53 23 117t-23 117q-23 54 -64 95t-96 64q-55 24 -117 24q-60 0 -116 -24q-55 -23 -96 -64
t-64 -95q-24 -55 -24 -117t24 -117q23 -54 64 -95t96 -64q56 -24 116 -24q62 0 117 24q14 5 29 14l-186 262h61z" />
    <glyph glyph-name="r" unicode="r" horiz-adv-x="688" 
d="M100 700h221q123 0 210 -87t87 -210q0 -89 -47 -161.5t-125 -108.5l83 -133h-59l-179 287h59l69 -111q43 18 77 52q32 30 53 78q19 45 19 97q0 51 -19 96q-21 47 -53 79q-36 34 -79 53q-48 19 -96 19h-171v-650h-50v700z" />
    <glyph glyph-name="s" unicode="s" horiz-adv-x="546" 
d="M450 523h-50q0 53 -37 90t-90 37t-90 -37t-37 -90t37 -90t90 -37q82 0 140 -58t58 -140t-58 -140t-140 -58t-140 58t-58 140h50q0 -60 43 -105q43 -43 105 -43t105 43q43 45 43 105t-43 105q-45 43 -105 43q-74 0 -125.5 53.5t-51.5 123.5q0 73 52 125t125 52t125 -52
t52 -125z" />
    <glyph glyph-name="t" unicode="t" horiz-adv-x="475" 
d="M405 650h-143v-650h-50v650h-142v50h335v-50z" />
    <glyph glyph-name="u" unicode="u" horiz-adv-x="767" 
d="M667 699v-415q0 -118 -83 -201t-200 -83q-118 0 -201 83t-83 201v415h50v-415q0 -49 18 -91t51 -75q32 -32 74 -50q43 -18 91 -18q47 0 91 18q40 18 74 50q32 34 50 75q18 42 18 91v415h50z" />
    <glyph glyph-name="v" unicode="v" horiz-adv-x="649" 
d="M20 700h54l250 -575l250 575h55l-305 -700z" />
    <glyph glyph-name="w" unicode="w" horiz-adv-x="878" 
d="M145 0h-58l181 309l-228 391h58l199 -342l201 342h58l-230 -391l123 -210l351 601h58l-409 -700l-152 260z" />
    <glyph glyph-name="x" unicode="x" horiz-adv-x="608" 
d="M128 700l176 -301l176 301h58l-205 -350l205 -350h-58l-176 300l-176 -300h-58l205 350l-205 350h58z" />
    <glyph glyph-name="y" unicode="y" horiz-adv-x="592" 
d="M322 0h-50v184l-252 516h56l221 -453l220 453h55l-250 -516v-184z" />
    <glyph glyph-name="z" unicode="z" horiz-adv-x="665" 
d="M575 50v-50h-485l395 650h-395v50h484l-395 -650h396z" />
    <glyph glyph-name="braceleft" unicode="{" horiz-adv-x="345" 
d="M186 560v-119q0 -55 -44 -91q43 -35 43 -91v-119q0 -37 26.5 -63.5t63.5 -26.5v-50q-58 0 -99 41t-41 99v119q0 28 -19 47t-46 19v50q27 0 46.5 19t19.5 47v119q0 58 40.5 99t98.5 41v-50q-37 0 -63 -26.5t-26 -63.5z" />
    <glyph glyph-name="bar" unicode="|" 
 />
    <glyph glyph-name="braceright" unicode="}" horiz-adv-x="345" 
d="M209 259v-119q0 -58 -40.5 -99t-98.5 -41v50q37 0 63 26.5t26 63.5v119q0 55 44 91q-44 34 -44 91v119q0 37 -26 63.5t-63 26.5v50q58 0 98.5 -41t40.5 -99v-119q0 -28 19.5 -47t46.5 -19v-50q-27 0 -46.5 -19t-19.5 -47z" />
    <glyph glyph-name="asciitilde" unicode="~" horiz-adv-x="462" 
d="M80 355l20 38l84 -43l94 48l104 -53l-20 -38l-84 43l-94 -48z" />
    <glyph glyph-name="exclamdown" unicode="&#xa1;" 
 />
    <glyph glyph-name="cent" unicode="&#xa2;" horiz-adv-x="690" 
d="M640 604l-34 -37q-38 36 -89 58q-55 24 -117 24t-117 -24q-56 -23 -95 -64q-39 -37 -65 -95q-23 -57 -23 -117t23 -117q26 -58 65 -95q39 -41 95 -64q55 -24 117 -24t117 24q51 22 89 58l33 -37q-88 -85 -214 -94v-88h-50v88q-136 10 -230.5 110.5t-94.5 238.5
t94.5 238.5t230.5 110.5v89h50v-89q125 -9 215 -94z" />
    <glyph glyph-name="sterling" unicode="&#xa3;" horiz-adv-x="596" 
d="M536 0h-476v50h60v395q0 106 74.5 180.5t180.5 74.5q90 0 161 -58l-30 -39q-58 47 -131 47q-85 0 -145 -60t-60 -145v-143h259v-50h-259v-202h366v-50z" />
    <glyph glyph-name="currency" unicode="&#xa4;" horiz-adv-x="510" 
d="M430 489l-63 -62q24 -35 24 -78t-23 -77l62 -61l-36 -36l-62 62q-34 -25 -78 -25q-42 0 -77 24l-61 -61l-36 36l61 61q-24 35 -24 77q0 43 25 79l-62 61l36 36l62 -62q34 23 76 23t77 -24l63 63zM254 263q36 0 61.5 25.5t25.5 60.5q0 36 -25.5 61.5t-61.5 25.5
q-35 0 -60.5 -25.5t-25.5 -61.5q0 -35 25.5 -60.5t60.5 -25.5z" />
    <glyph glyph-name="yen" unicode="&#xa5;" horiz-adv-x="611" 
d="M442 413h149l-21 -43h-149l-72 -149h148l-21 -43h-145v-178h-50v178h-146l-21 43h150l-73 149h-150l-21 43h150l-141 287h56l141 -287h161l139 287h55zM366 370h-119l59 -123z" />
    <glyph glyph-name="brokenbar" unicode="&#xa6;" 
 />
    <glyph glyph-name="section" unicode="&#xa7;" 
 />
    <glyph glyph-name="dieresis" unicode="&#xa8;" 
 />
    <glyph glyph-name="copyright" unicode="&#xa9;" 
 />
    <glyph glyph-name="guillemotleft" unicode="&#xab;" 
 />
    <glyph glyph-name="logicalnot" unicode="&#xac;" 
 />
    <glyph glyph-name="registered" unicode="&#xae;" 
 />
    <glyph glyph-name="macron" unicode="&#xaf;" 
 />
    <glyph glyph-name="degree" unicode="&#xb0;" 
 />
    <glyph glyph-name="plusminus" unicode="&#xb1;" 
 />
    <glyph glyph-name="acute" unicode="&#xb4;" 
 />
    <glyph glyph-name="paragraph" unicode="&#xb6;" 
 />
    <glyph glyph-name="periodcentered" unicode="&#xb7;" horiz-adv-x="240" 
d="M160 350q0 16 -12 28t-28 12t-28 -12t-12 -28t12 -28t28 -12t28 12t12 28z" />
    <glyph glyph-name="cedilla" unicode="&#xb8;" 
 />
    <glyph glyph-name="guillemotright" unicode="&#xbb;" 
 />
    <glyph glyph-name="questiondown" unicode="&#xbf;" horiz-adv-x="604" 
 />
    <glyph glyph-name="Agrave" unicode="&#xc0;" horiz-adv-x="649" 
d="M386 683l-78 180h54l78 -180h-54zM325 700l304 -700h-54l-49 112h-403l-48 -112h-55zM504 162l-179 413l-180 -413h359z" />
    <glyph glyph-name="Aacute" unicode="&#xc1;" horiz-adv-x="649" 
d="M342 863l-78 -180h-55l78 180h55zM325 700l304 -700h-54l-49 112h-403l-48 -112h-55zM504 162l-179 413l-180 -413h359z" />
    <glyph glyph-name="Acircumflex" unicode="&#xc2;" horiz-adv-x="649" 
d="M325 876l-135 -63l-18 39l153 71l153 -71l-18 -39zM20 0l305 700l304 -700h-54l-49 112h-403l-48 -112h-55zM145 162h359l-179 413z" />
    <glyph glyph-name="Atilde" unicode="&#xc3;" horiz-adv-x="649" 
d="M278 868l94 48l103 -53l-19 -38l-84 43l-94 -48l-104 53l19 38zM325 700l304 -700h-54l-49 112h-403l-48 -112h-55zM504 162l-179 413l-180 -413h359z" />
    <glyph glyph-name="Adieresis" unicode="&#xc4;" horiz-adv-x="650" 
d="M303 855q0 -17 -11.5 -28.5t-28.5 -11.5t-28.5 11.5t-11.5 28.5t11.5 28.5t28.5 11.5t28.5 -11.5t11.5 -28.5zM427 855q0 -17 -11.5 -28.5t-28.5 -11.5t-28.5 11.5t-11.5 28.5t11.5 28.5t28.5 11.5t28.5 -11.5t11.5 -28.5zM325 700l305 -700h-55l-49 112h-402l-49 -112
h-55zM505 162l-180 413l-180 -413h360z" />
    <glyph glyph-name="Aring" unicode="&#xc5;" horiz-adv-x="649" 
d="M390 831q0 -27 -19 -46t-46 -19t-46 19t-19 46t19 46t46 19t46 -19t19 -46zM283 831q0 -17 12.5 -29.5t29.5 -12.5t29.5 12.5t12.5 29.5t-12.5 29.5t-29.5 12.5t-29.5 -12.5t-12.5 -29.5zM325 700l304 -700h-54l-49 112h-403l-48 -112h-55zM504 162l-179 413l-180 -413
h359z" />
    <glyph glyph-name="Ccedilla" unicode="&#xc7;" horiz-adv-x="730" 
d="M365 -51l24 53q-135 12 -227 112t-92 236q0 145 102.5 247.5t247.5 102.5q139 0 240 -95l-34 -37q-38 36 -89 58q-55 24 -117 24t-117 -24q-56 -23 -95 -64q-39 -37 -65 -95q-23 -57 -23 -117t23 -117q26 -58 65 -95q39 -41 95 -64q55 -24 117 -24t117 24q51 22 89 58
l33 -37q-93 -89 -224 -94l-6 -16q47 -21 47 -71q0 -32 -23 -55t-55 -23h-56l19 43h37q14 0 24.5 10.5t10.5 24.5t-10.5 24.5t-24.5 10.5h-33z" />
    <glyph glyph-name="Egrave" unicode="&#xc8;" horiz-adv-x="535" 
d="M305 779h-55l-64 148h55zM435 700v-50h-335v50h335zM435 325h-335v50h335v-50zM435 0h-335v50h335v-50z" />
    <glyph glyph-name="Eacute" unicode="&#xc9;" horiz-adv-x="535" 
d="M358 927l-64 -148h-54l64 148h54zM435 700v-50h-335v50h335zM435 325h-335v50h335v-50zM435 0h-335v50h335v-50z" />
    <glyph glyph-name="Ecircumflex" unicode="&#xca;" horiz-adv-x="535" 
d="M267 876l-135 -63l-18 39l153 71l153 -71l-18 -39zM435 700v-50h-335v50h335zM435 325h-335v50h335v-50zM435 0h-335v50h335v-50z" />
    <glyph glyph-name="Edieresis" unicode="&#xcb;" horiz-adv-x="534" 
d="M253 855q0 -17 -11.5 -28.5t-28.5 -11.5t-28.5 11.5t-11.5 28.5t11.5 28.5t28.5 11.5t28.5 -11.5t11.5 -28.5zM361 855q0 -17 -11.5 -28.5t-28.5 -11.5t-28.5 11.5t-11.5 28.5t11.5 28.5t28.5 11.5t28.5 -11.5t11.5 -28.5zM434 700v-50h-334v50h334zM434 325h-334v50h334
v-50zM434 0h-334v50h334v-50z" />
    <glyph glyph-name="Igrave" unicode="&#xcc;" horiz-adv-x="259" 
d="M149 779h-55l-64 148h54zM99 700h50v-700h-50v700z" />
    <glyph glyph-name="Iacute" unicode="&#xcd;" horiz-adv-x="258" 
d="M228 927l-64 -148h-54l64 148h54zM160 0h-50v700h50v-700z" />
    <glyph glyph-name="Icircumflex" unicode="&#xce;" horiz-adv-x="406" 
d="M203 923l153 -71l-18 -39l-135 63l-135 -63l-18 39zM178 700h50v-700h-50v700z" />
    <glyph glyph-name="Idieresis" unicode="&#xcf;" horiz-adv-x="288" 
d="M90 922q16 0 28 -12t12 -28t-12 -28t-28 -12t-28 12t-12 28t12 28t28 12zM158 882q0 16 12 28t28 12t28 -12t12 -28t-12 -28t-28 -12t-28 12t-12 28zM119 700h50v-700h-50v700z" />
    <glyph glyph-name="Eth" unicode="&#xd0;" horiz-adv-x="827" 
d="M151 700h266q145 0 247.5 -102.5t102.5 -247.5t-102.5 -247.5t-247.5 -102.5h-266v329h-91v43h91v328zM201 50h216q61 0 117 24q56 23 95 64q41 40 65 95q23 57 23 117t-23 117q-24 55 -65 95q-39 41 -95 64q-56 24 -117 24h-216v-278h91v-43h-91v-279z" />
    <glyph glyph-name="Ntilde" unicode="&#xd1;" horiz-adv-x="686" 
d="M296 868l94 48l104 -53l-19 -38l-85 43l-94 -48l-103 53l19 38zM536 700h50v-700h-50v301l-386 297v-598h-50v700l436 -336v336z" />
    <glyph glyph-name="Ograve" unicode="&#xd2;" horiz-adv-x="820" 
d="M373 927l64 -148h-54l-64 148h54zM410 700q145 0 247.5 -102.5t102.5 -247.5t-102.5 -247.5t-247.5 -102.5t-247.5 102.5t-102.5 247.5t102.5 247.5t247.5 102.5zM710 350q0 62 -24 117q-24 57 -64 95q-41 41 -95 64q-56 24 -117 24q-62 0 -117 -24q-56 -23 -95 -64
q-39 -37 -65 -95q-23 -57 -23 -117t23 -117q26 -58 65 -95q39 -41 95 -64q55 -24 117 -24t117 24q54 23 95 64q40 38 64 95q24 55 24 117z" />
    <glyph glyph-name="Oacute" unicode="&#xd3;" horiz-adv-x="820" 
d="M434 779h-55l65 148h54zM410 700q145 0 247.5 -102.5t102.5 -247.5t-102.5 -247.5t-247.5 -102.5t-247.5 102.5t-102.5 247.5t102.5 247.5t247.5 102.5zM710 350q0 62 -24 117q-24 57 -64 95q-41 41 -95 64q-56 24 -117 24q-62 0 -117 -24q-56 -23 -95 -64
q-39 -37 -65 -95q-23 -57 -23 -117t23 -117q26 -58 65 -95q39 -41 95 -64q55 -24 117 -24t117 24q54 23 95 64q40 38 64 95q24 55 24 117z" />
    <glyph glyph-name="Ocircumflex" unicode="&#xd4;" horiz-adv-x="820" 
d="M257 852l153 71l153 -71l-18 -39l-135 63l-135 -63zM410 700q145 0 247.5 -102.5t102.5 -247.5t-102.5 -247.5t-247.5 -102.5t-247.5 102.5t-102.5 247.5t102.5 247.5t247.5 102.5zM710 350q0 62 -24 117q-24 57 -64 95q-41 41 -95 64q-56 24 -117 24q-62 0 -117 -24
q-56 -23 -95 -64q-39 -37 -65 -95q-23 -57 -23 -117t23 -117q26 -58 65 -95q39 -41 95 -64q55 -24 117 -24t117 24q54 23 95 64q40 38 64 95q24 55 24 117z" />
    <glyph glyph-name="Otilde" unicode="&#xd5;" horiz-adv-x="820" 
d="M457 868l-94 -48l-104 53l20 38l84 -43l94 48l104 -53l-20 -38zM410 700q145 0 247.5 -102.5t102.5 -247.5t-102.5 -247.5t-247.5 -102.5t-247.5 102.5t-102.5 247.5t102.5 247.5t247.5 102.5zM710 350q0 62 -24 117q-24 57 -64 95q-41 41 -95 64q-56 24 -117 24
q-62 0 -117 -24q-56 -23 -95 -64q-39 -37 -65 -95q-23 -57 -23 -117t23 -117q26 -58 65 -95q39 -41 95 -64q55 -24 117 -24t117 24q54 23 95 64q40 38 64 95q24 55 24 117z" />
    <glyph glyph-name="Odieresis" unicode="&#xd6;" horiz-adv-x="820" 
d="M356 811q-16 0 -28 11.5t-12 28.5t12 28.5t28 11.5t28 -11.5t12 -28.5t-12 -28.5t-28 -11.5zM464 811q-16 0 -28 11.5t-12 28.5t12 28.5t28 11.5t28 -11.5t12 -28.5t-12 -28.5t-28 -11.5zM410 700q145 0 247.5 -102.5t102.5 -247.5t-102.5 -247.5t-247.5 -102.5
t-247.5 102.5t-102.5 247.5t102.5 247.5t247.5 102.5zM710 350q0 62 -24 117q-24 57 -64 95q-41 41 -95 64q-56 24 -117 24q-62 0 -117 -24q-56 -23 -95 -64q-39 -37 -65 -95q-23 -57 -23 -117t23 -117q26 -58 65 -95q39 -41 95 -64q55 -24 117 -24t117 24q54 23 95 64
q40 38 64 95q24 55 24 117z" />
    <glyph glyph-name="multiply" unicode="&#xd7;" horiz-adv-x="488" 
d="M244 322l-136 -136l-28 28l136 136l-136 136l28 28l136 -136l136 136l28 -28l-136 -136l136 -136l-28 -28z" />
    <glyph glyph-name="Oslash" unicode="&#xd8;" horiz-adv-x="820" 
d="M88 0l-28 28l89 89q-89 100 -89 233q0 145 102.5 247.5t247.5 102.5q133 0 233 -89l89 89l28 -28l-89 -89q89 -100 89 -233q0 -145 -102.5 -247.5t-247.5 -102.5q-133 0 -233 89zM184 153l423 423q-37 32 -80 50q-56 24 -117 24q-62 0 -117 -24q-56 -23 -95 -64
q-39 -37 -65 -95q-23 -57 -23 -117t23 -117q20 -45 51 -80zM636 548l-423 -424q32 -29 80 -50q55 -24 117 -24t117 24q54 23 95 64q40 38 64 95q24 55 24 117t-24 117q-19 45 -50 81z" />
    <glyph glyph-name="Ugrave" unicode="&#xd9;" horiz-adv-x="767" 
d="M438 745h-54l-64 148h54zM667 699v-415q0 -118 -83 -201t-200 -83q-118 0 -201 83t-83 201v415h50v-415q0 -49 18 -91q18 -41 50 -75q34 -32 75 -50q42 -18 91 -18q48 0 90 18q41 18 75 50q32 34 50 75q18 42 18 91v415h50z" />
    <glyph glyph-name="Uacute" unicode="&#xda;" horiz-adv-x="767" 
d="M474 893l-64 -148h-54l64 148h54zM667 699v-415q0 -118 -83 -201t-200 -83q-118 0 -201 83t-83 201v415h50v-415q0 -49 18 -91q18 -41 50 -75q34 -32 75 -50q42 -18 91 -18q48 0 90 18q41 18 75 50q32 34 50 75q18 42 18 91v415h50z" />
    <glyph glyph-name="Ucircumflex" unicode="&#xdb;" horiz-adv-x="767" 
d="M384 876l-135 -63l-18 39l153 71l153 -71l-19 -39zM667 699v-415q0 -118 -83 -201t-200 -83q-118 0 -201 83t-83 201v415h50v-415q0 -49 18 -91q18 -41 50 -75q34 -32 75 -50q42 -18 91 -18q48 0 90 18q41 18 75 50q32 34 50 75q18 42 18 91v415h50z" />
    <glyph glyph-name="Udieresis" unicode="&#xdc;" horiz-adv-x="767" 
d="M362 829q0 -17 -12 -28.5t-28 -11.5t-28 11.5t-12 28.5t12 28.5t28 11.5t28 -11.5t12 -28.5zM485 829q0 -17 -11.5 -28.5t-28.5 -11.5t-28.5 11.5t-11.5 28.5t11.5 28.5t28.5 11.5t28.5 -11.5t11.5 -28.5zM667 699v-415q0 -118 -83 -201t-200 -83q-118 0 -201 83t-83 201
v415h50v-415q0 -49 18 -91q18 -41 50 -75q34 -32 75 -50q42 -18 91 -18q48 0 90 18q41 18 75 50q32 34 50 75q18 42 18 91v415h50z" />
    <glyph glyph-name="Yacute" unicode="&#xdd;" horiz-adv-x="592" 
d="M517 700h55l-250 -516v-184h-50v184l-252 516h56l221 -453zM365 700h48l-76 -155h-47z" />
    <glyph glyph-name="Thorn" unicode="&#xde;" horiz-adv-x="665" 
d="M150 627h168q115 0 196 -81t81 -196t-81 -196t-196 -81h-168v-73h-50v700h50v-73zM150 123h168q46 0 88 18q38 15 72 48q30 30 49 73q18 42 18 88t-18 88q-19 43 -49 73q-34 33 -72 48q-42 18 -88 18h-168v-454z" />
    <glyph glyph-name="germandbls" unicode="&#xdf;" horiz-adv-x="642" 
d="M100 0v508q0 87 35.5 139.5t113.5 52.5q82 0 140.5 -56t58.5 -136q0 -38 -15 -71q60 -27 97 -83.5t37 -124.5q0 -95 -67 -162t-162 -67h-125v50h125q73 0 127 52q52 52 52 127q0 76 -52 126q-25 25 -57 39q-59 -77 -159 -77h-36v50h36q61 0 106 42q43 43 43 99
q0 57 -43 100q-45 42 -106 42q-45 0 -74 -34q-25 -29 -25 -108v-508h-50z" />
    <glyph glyph-name="agrave" unicode="&#xe0;" horiz-adv-x="649" 
d="M386 683l-78 180h54l78 -180h-54zM325 700l304 -700h-54l-49 112h-403l-48 -112h-55zM504 162l-179 413l-180 -413h359z" />
    <glyph glyph-name="aacute" unicode="&#xe1;" horiz-adv-x="649" 
d="M342 863l-78 -180h-55l78 180h55zM325 700l304 -700h-54l-49 112h-403l-48 -112h-55zM504 162l-179 413l-180 -413h359z" />
    <glyph glyph-name="acircumflex" unicode="&#xe2;" horiz-adv-x="649" 
d="M325 876l-135 -63l-18 39l153 71l153 -71l-18 -39zM20 0l305 700l304 -700h-54l-49 112h-403l-48 -112h-55zM145 162h359l-179 413z" />
    <glyph glyph-name="atilde" unicode="&#xe3;" horiz-adv-x="649" 
d="M278 868l94 48l103 -53l-19 -38l-84 43l-94 -48l-104 53l19 38zM325 700l304 -700h-54l-49 112h-403l-48 -112h-55zM504 162l-179 413l-180 -413h359z" />
    <glyph glyph-name="adieresis" unicode="&#xe4;" horiz-adv-x="650" 
d="M303 855q0 -17 -11.5 -28.5t-28.5 -11.5t-28.5 11.5t-11.5 28.5t11.5 28.5t28.5 11.5t28.5 -11.5t11.5 -28.5zM427 855q0 -17 -11.5 -28.5t-28.5 -11.5t-28.5 11.5t-11.5 28.5t11.5 28.5t28.5 11.5t28.5 -11.5t11.5 -28.5zM325 700l305 -700h-55l-49 112h-402l-49 -112
h-55zM505 162l-180 413l-180 -413h360z" />
    <glyph glyph-name="aring" unicode="&#xe5;" horiz-adv-x="649" 
d="M390 831q0 -27 -19 -46t-46 -19t-46 19t-19 46t19 46t46 19t46 -19t19 -46zM283 831q0 -17 12.5 -29.5t29.5 -12.5t29.5 12.5t12.5 29.5t-12.5 29.5t-29.5 12.5t-29.5 -12.5t-12.5 -29.5zM325 700l304 -700h-54l-49 112h-403l-48 -112h-55zM504 162l-179 413l-180 -413
h359z" />
    <glyph glyph-name="ae" unicode="&#xe6;" horiz-adv-x="836" 
d="M75 0h-55l305 700h441v-50h-419l120 -275h299v-50h-278l120 -275h158v-50h-191l-48 111h-404zM145 161h360l-180 414z" />
    <glyph glyph-name="ccedilla" unicode="&#xe7;" horiz-adv-x="730" 
d="M365 -51l24 53q-135 12 -227 112t-92 236q0 145 102.5 247.5t247.5 102.5q139 0 240 -95l-34 -37q-38 36 -89 58q-55 24 -117 24t-117 -24q-56 -23 -95 -64q-39 -37 -65 -95q-23 -57 -23 -117t23 -117q26 -58 65 -95q39 -41 95 -64q55 -24 117 -24t117 24q51 22 89 58
l33 -37q-93 -89 -224 -94l-6 -16q47 -21 47 -71q0 -32 -23 -55t-55 -23h-56l19 43h37q14 0 24.5 10.5t10.5 24.5t-10.5 24.5t-24.5 10.5h-33z" />
    <glyph glyph-name="egrave" unicode="&#xe8;" horiz-adv-x="520" 
d="M305 779h-55l-64 148h55zM150 650v-275h284v-50h-284v-275h284v-50h-334v700h334v-50h-284z" />
    <glyph glyph-name="eacute" unicode="&#xe9;" horiz-adv-x="520" 
d="M358 927l-64 -148h-54l64 148h54zM150 650v-275h284v-50h-284v-275h284v-50h-334v700h334v-50h-284z" />
    <glyph glyph-name="ecircumflex" unicode="&#xea;" horiz-adv-x="520" 
d="M267 876l-135 -63l-18 39l153 71l153 -71l-18 -39zM150 650v-275h284v-50h-284v-275h284v-50h-334v700h334v-50h-284z" />
    <glyph glyph-name="edieresis" unicode="&#xeb;" horiz-adv-x="519" 
d="M253 855q0 -17 -11.5 -28.5t-28.5 -11.5t-28.5 11.5t-11.5 28.5t11.5 28.5t28.5 11.5t28.5 -11.5t11.5 -28.5zM361 855q0 -17 -11.5 -28.5t-28.5 -11.5t-28.5 11.5t-11.5 28.5t11.5 28.5t28.5 11.5t28.5 -11.5t11.5 -28.5zM150 650v-275h284v-50h-284v-275h284v-50h-334
v700h334v-50h-284z" />
    <glyph glyph-name="igrave" unicode="&#xec;" horiz-adv-x="189" 
d="M119 779h-55l-64 148h54zM69 700h50v-700h-50v700z" />
    <glyph glyph-name="iacute" unicode="&#xed;" horiz-adv-x="188" 
d="M188 927l-64 -148h-54l64 148h54zM120 0h-50v700h50v-700z" />
    <glyph glyph-name="icircumflex" unicode="&#xee;" horiz-adv-x="346" 
d="M173 923l153 -71l-18 -39l-135 63l-135 -63l-18 39zM148 700h50v-700h-50v700z" />
    <glyph glyph-name="idieresis" unicode="&#xef;" horiz-adv-x="228" 
d="M60 922q16 0 28 -12t12 -28t-12 -28t-28 -12t-28 12t-12 28t12 28t28 12zM128 882q0 16 12 28t28 12t28 -12t12 -28t-12 -28t-28 -12t-28 12t-12 28zM89 700h50v-700h-50v700z" />
    <glyph glyph-name="eth" unicode="&#xf0;" horiz-adv-x="827" 
d="M151 700h266q145 0 247.5 -102.5t102.5 -247.5t-102.5 -247.5t-247.5 -102.5h-266v329h-91v43h91v328zM201 50h216q61 0 117 24q56 23 95 64q41 40 65 95q23 57 23 117t-23 117q-24 55 -65 95q-39 41 -95 64q-56 24 -117 24h-216v-278h91v-43h-91v-279z" />
    <glyph glyph-name="ntilde" unicode="&#xf1;" horiz-adv-x="686" 
d="M296 868l94 48l104 -53l-19 -38l-85 43l-94 -48l-103 53l19 38zM536 700h50v-700h-50v301l-386 297v-598h-50v700l436 -336v336z" />
    <glyph glyph-name="ograve" unicode="&#xf2;" horiz-adv-x="820" 
d="M373 927l64 -148h-54l-64 148h54zM410 700q145 0 247.5 -102.5t102.5 -247.5t-102.5 -247.5t-247.5 -102.5t-247.5 102.5t-102.5 247.5t102.5 247.5t247.5 102.5zM710 350q0 62 -24 117q-24 57 -64 95q-41 41 -95 64q-56 24 -117 24q-62 0 -117 -24q-56 -23 -95 -64
q-39 -37 -65 -95q-23 -57 -23 -117t23 -117q26 -58 65 -95q39 -41 95 -64q55 -24 117 -24t117 24q54 23 95 64q40 38 64 95q24 55 24 117z" />
    <glyph glyph-name="oacute" unicode="&#xf3;" horiz-adv-x="820" 
d="M434 779h-55l65 148h54zM410 700q145 0 247.5 -102.5t102.5 -247.5t-102.5 -247.5t-247.5 -102.5t-247.5 102.5t-102.5 247.5t102.5 247.5t247.5 102.5zM710 350q0 62 -24 117q-24 57 -64 95q-41 41 -95 64q-56 24 -117 24q-62 0 -117 -24q-56 -23 -95 -64
q-39 -37 -65 -95q-23 -57 -23 -117t23 -117q26 -58 65 -95q39 -41 95 -64q55 -24 117 -24t117 24q54 23 95 64q40 38 64 95q24 55 24 117z" />
    <glyph glyph-name="ocircumflex" unicode="&#xf4;" horiz-adv-x="820" 
d="M257 852l153 71l153 -71l-18 -39l-135 63l-135 -63zM410 700q145 0 247.5 -102.5t102.5 -247.5t-102.5 -247.5t-247.5 -102.5t-247.5 102.5t-102.5 247.5t102.5 247.5t247.5 102.5zM710 350q0 62 -24 117q-24 57 -64 95q-41 41 -95 64q-56 24 -117 24q-62 0 -117 -24
q-56 -23 -95 -64q-39 -37 -65 -95q-23 -57 -23 -117t23 -117q26 -58 65 -95q39 -41 95 -64q55 -24 117 -24t117 24q54 23 95 64q40 38 64 95q24 55 24 117z" />
    <glyph glyph-name="otilde" unicode="&#xf5;" horiz-adv-x="820" 
d="M457 868l-94 -48l-104 53l20 38l84 -43l94 48l104 -53l-20 -38zM410 700q145 0 247.5 -102.5t102.5 -247.5t-102.5 -247.5t-247.5 -102.5t-247.5 102.5t-102.5 247.5t102.5 247.5t247.5 102.5zM710 350q0 62 -24 117q-24 57 -64 95q-41 41 -95 64q-56 24 -117 24
q-62 0 -117 -24q-56 -23 -95 -64q-39 -37 -65 -95q-23 -57 -23 -117t23 -117q26 -58 65 -95q39 -41 95 -64q55 -24 117 -24t117 24q54 23 95 64q40 38 64 95q24 55 24 117z" />
    <glyph glyph-name="odieresis" unicode="&#xf6;" horiz-adv-x="820" 
d="M356 811q-16 0 -28 11.5t-12 28.5t12 28.5t28 11.5t28 -11.5t12 -28.5t-12 -28.5t-28 -11.5zM464 811q-16 0 -28 11.5t-12 28.5t12 28.5t28 11.5t28 -11.5t12 -28.5t-12 -28.5t-28 -11.5zM410 700q145 0 247.5 -102.5t102.5 -247.5t-102.5 -247.5t-247.5 -102.5
t-247.5 102.5t-102.5 247.5t102.5 247.5t247.5 102.5zM710 350q0 62 -24 117q-24 57 -64 95q-41 41 -95 64q-56 24 -117 24q-62 0 -117 -24q-56 -23 -95 -64q-39 -37 -65 -95q-23 -57 -23 -117t23 -117q26 -58 65 -95q39 -41 95 -64q55 -24 117 -24t117 24q54 23 95 64
q40 38 64 95q24 55 24 117z" />
    <glyph glyph-name="divide" unicode="&#xf7;" horiz-adv-x="554" 
d="M317 497q0 -17 -11.5 -28.5t-28.5 -11.5t-28.5 11.5t-11.5 28.5t11.5 28.5t28.5 11.5t28.5 -11.5t11.5 -28.5zM80 375h394v-50h-394v50zM277 244q17 0 28.5 -12t11.5 -28t-11.5 -28t-28.5 -12t-28.5 12t-11.5 28t11.5 28t28.5 12z" />
    <glyph glyph-name="oslash" unicode="&#xf8;" horiz-adv-x="820" 
d="M88 0l-28 28l89 89q-89 100 -89 233q0 145 102.5 247.5t247.5 102.5q133 0 233 -89l89 89l28 -28l-89 -89q89 -100 89 -233q0 -145 -102.5 -247.5t-247.5 -102.5q-133 0 -233 89zM184 153l423 423q-37 32 -80 50q-56 24 -117 24q-62 0 -117 -24q-56 -23 -95 -64
q-39 -37 -65 -95q-23 -57 -23 -117t23 -117q20 -45 51 -80zM636 548l-423 -424q32 -29 80 -50q55 -24 117 -24t117 24q54 23 95 64q40 38 64 95q24 55 24 117t-24 117q-19 45 -50 81z" />
    <glyph glyph-name="ugrave" unicode="&#xf9;" horiz-adv-x="767" 
d="M438 745h-54l-64 148h54zM667 699v-415q0 -118 -83 -201t-200 -83q-118 0 -201 83t-83 201v415h50v-415q0 -49 18 -91q18 -41 50 -75q34 -32 75 -50q42 -18 91 -18q48 0 90 18q41 18 75 50q32 34 50 75q18 42 18 91v415h50z" />
    <glyph glyph-name="uacute" unicode="&#xfa;" horiz-adv-x="767" 
d="M474 893l-64 -148h-54l64 148h54zM667 699v-415q0 -118 -83 -201t-200 -83q-118 0 -201 83t-83 201v415h50v-415q0 -49 18 -91q18 -41 50 -75q34 -32 75 -50q42 -18 91 -18q48 0 90 18q41 18 75 50q32 34 50 75q18 42 18 91v415h50z" />
    <glyph glyph-name="ucircumflex" unicode="&#xfb;" horiz-adv-x="767" 
d="M384 876l-135 -63l-18 39l153 71l153 -71l-19 -39zM667 699v-415q0 -118 -83 -201t-200 -83q-118 0 -201 83t-83 201v415h50v-415q0 -49 18 -91q18 -41 50 -75q34 -32 75 -50q42 -18 91 -18q48 0 90 18q41 18 75 50q32 34 50 75q18 42 18 91v415h50z" />
    <glyph glyph-name="udieresis" unicode="&#xfc;" horiz-adv-x="767" 
d="M362 829q0 -17 -12 -28.5t-28 -11.5t-28 11.5t-12 28.5t12 28.5t28 11.5t28 -11.5t12 -28.5zM485 829q0 -17 -11.5 -28.5t-28.5 -11.5t-28.5 11.5t-11.5 28.5t11.5 28.5t28.5 11.5t28.5 -11.5t11.5 -28.5zM667 699v-415q0 -118 -83 -201t-200 -83q-118 0 -201 83t-83 201
v415h50v-415q0 -49 18 -91q18 -41 50 -75q34 -32 75 -50q42 -18 91 -18q48 0 90 18q41 18 75 50q32 34 50 75q18 42 18 91v415h50z" />
    <glyph glyph-name="yacute" unicode="&#xfd;" horiz-adv-x="592" 
d="M517 700h55l-250 -516v-184h-50v184l-252 516h56l221 -453zM365 700h48l-76 -155h-47z" />
    <glyph glyph-name="thorn" unicode="&#xfe;" horiz-adv-x="655" 
d="M150 627h168q115 0 196 -81t81 -196t-81 -196t-196 -81h-168v-73h-50v700h50v-73zM150 123h168q46 0 88 18q38 15 72 48q30 30 49 73q18 42 18 88t-18 88q-19 43 -49 73q-34 33 -72 48q-42 18 -88 18h-168v-454z" />
    <glyph glyph-name="ydieresis" unicode="&#xff;" horiz-adv-x="592" 
d="M274 821q0 -17 -12 -28.5t-28 -11.5t-28 11.5t-12 28.5t12 28.5t28 11.5t28 -11.5t12 -28.5zM398 821q0 -17 -12 -28.5t-28 -11.5t-28 11.5t-12 28.5t12 28.5t28 11.5t28 -11.5t12 -28.5zM517 700h55l-250 -516v-184h-50v184l-252 516h56l221 -453z" />
    <glyph glyph-name="Amacron" unicode="&#x100;" horiz-adv-x="649" 
d="M380 808h-111v43h111v-43zM324 700l305 -700h-55l-48 112h-403l-49 -112h-54zM504 162l-180 413l-179 -413h359z" />
    <glyph glyph-name="amacron" unicode="&#x101;" horiz-adv-x="650" 
d="M380 851h-110v-43h110v43zM526 112h-402l-49 -112h-55l305 700l305 -700h-55zM505 162l-180 413l-179 -413h359z" />
    <glyph glyph-name="Abreve" unicode="&#x102;" horiz-adv-x="649" 
d="M376 873h43q0 -39 -28 -66.5t-66 -27.5q-39 0 -66.5 27.5t-27.5 66.5h43q0 -21 15 -36t36 -15t36 15t15 36zM325 700l304 -700h-54l-49 112h-403l-48 -112h-55zM504 162l-179 413l-180 -413h359z" />
    <glyph glyph-name="abreve" unicode="&#x103;" horiz-adv-x="649" 
d="M376 873h43q0 -39 -28 -66.5t-66 -27.5q-39 0 -66.5 27.5t-27.5 66.5h43q0 -21 15 -36t36 -15t36 15t15 36zM325 700l304 -700h-54l-49 112h-403l-48 -112h-55zM504 162l-179 413l-180 -413h359z" />
    <glyph glyph-name="Aogonek" unicode="&#x104;" horiz-adv-x="649" 
d="M325 700l304 -700h-54l-49 112h-403l-48 -112h-55zM504 162l-179 413l-180 -413h359zM357 0l-29 -75q-2 -6 -2 -10q0 -14 10.5 -24.5t24.5 -10.5h51v-43h-51q-32 0 -55 23t-23 55q0 8 4 24l1 1l23 60h46z" />
    <glyph glyph-name="aogonek" unicode="&#x105;" horiz-adv-x="649" 
d="M325 700l304 -700h-54l-49 112h-403l-48 -112h-55zM504 162l-179 413l-180 -413h359zM357 0l-29 -75q-2 -6 -2 -10q0 -14 10.5 -24.5t24.5 -10.5h51v-43h-51q-32 0 -55 23t-23 55q0 8 4 24l1 1l23 60h46z" />
    <glyph glyph-name="Cacute" unicode="&#x106;" horiz-adv-x="730" 
d="M447 779h-54l64 148h54zM626 132l33 -37q-100 -95 -239 -95q-145 0 -247.5 102.5t-102.5 247.5t102.5 247.5t247.5 102.5q139 0 240 -95l-34 -37q-38 36 -89 58q-55 24 -117 24t-117 -24q-56 -23 -95 -64q-39 -37 -65 -95q-23 -57 -23 -117t23 -117q26 -58 65 -95
q39 -41 95 -64q55 -24 117 -24t117 24q51 22 89 58z" />
    <glyph glyph-name="cacute" unicode="&#x107;" horiz-adv-x="730" 
d="M447 779h-54l64 148h54zM626 132l33 -37q-100 -95 -239 -95q-145 0 -247.5 102.5t-102.5 247.5t102.5 247.5t247.5 102.5q139 0 240 -95l-34 -37q-38 36 -89 58q-55 24 -117 24t-117 -24q-56 -23 -95 -64q-39 -37 -65 -95q-23 -57 -23 -117t23 -117q26 -58 65 -95
q39 -41 95 -64q55 -24 117 -24t117 24q51 22 89 58z" />
    <glyph glyph-name="Cdotaccent" unicode="&#x10a;" horiz-adv-x="730" 
d="M382 829q0 17 12 28.5t28 11.5t28 -11.5t12 -28.5t-12 -28.5t-28 -11.5t-28 11.5t-12 28.5zM626 132l33 -37q-100 -95 -239 -95q-145 0 -247.5 102.5t-102.5 247.5t102.5 247.5t247.5 102.5q139 0 240 -95l-34 -37q-38 36 -89 58q-55 24 -117 24t-117 -24
q-56 -23 -95 -64q-39 -37 -65 -95q-23 -57 -23 -117t23 -117q26 -58 65 -95q39 -41 95 -64q55 -24 117 -24t117 24q51 22 89 58z" />
    <glyph glyph-name="cdotaccent" unicode="&#x10b;" horiz-adv-x="730" 
d="M382 829q0 17 12 28.5t28 11.5t28 -11.5t12 -28.5t-12 -28.5t-28 -11.5t-28 11.5t-12 28.5zM626 132l33 -37q-100 -95 -239 -95q-145 0 -247.5 102.5t-102.5 247.5t102.5 247.5t247.5 102.5q139 0 240 -95l-34 -37q-38 36 -89 58q-55 24 -117 24t-117 -24
q-56 -23 -95 -64q-39 -37 -65 -95q-23 -57 -23 -117t23 -117q26 -58 65 -95q39 -41 95 -64q55 -24 117 -24t117 24q51 22 89 58z" />
    <glyph glyph-name="Ccaron" unicode="&#x10c;" horiz-adv-x="730" 
d="M585 907l-23 36l-142 -92l-142 92l-24 -36l166 -107zM659 95l-33 37q-38 -36 -89 -58q-55 -24 -117 -24t-117 24q-56 23 -95 64q-39 37 -65 95q-23 57 -23 117t23 117q26 58 65 95q39 41 95 64q55 24 117 24t117 -24q51 -22 89 -58l34 37q-101 95 -240 95
q-145 0 -247.5 -102.5t-102.5 -247.5t102.5 -247.5t247.5 -102.5q139 0 239 95z" />
    <glyph glyph-name="ccaron" unicode="&#x10d;" horiz-adv-x="730" 
d="M585 907l-23 36l-142 -92l-142 92l-24 -36l166 -107zM659 95l-33 37q-38 -36 -89 -58q-55 -24 -117 -24t-117 24q-56 23 -95 64q-39 37 -65 95q-23 57 -23 117t23 117q26 58 65 95q39 41 95 64q55 24 117 24t117 -24q51 -22 89 -58l34 37q-101 95 -240 95
q-145 0 -247.5 -102.5t-102.5 -247.5t102.5 -247.5t247.5 -102.5q139 0 239 95z" />
    <glyph glyph-name="Dcaron" unicode="&#x10e;" horiz-adv-x="776" 
d="M366 796l-165 107l23 36l142 -91l142 91l24 -36zM100 700v-700h266q145 0 247.5 102.5t102.5 247.5t-102.5 247.5t-247.5 102.5h-266zM150 50v600h216q62 0 117 -24q56 -23 95 -64q41 -40 65 -95q23 -57 23 -117t-23 -117q-24 -55 -65 -95q-39 -41 -95 -64
q-55 -24 -117 -24h-216z" />
    <glyph glyph-name="dcaron" unicode="&#x10f;" horiz-adv-x="776" 
d="M366 796l-165 107l23 36l142 -91l142 91l24 -36zM100 700v-700h266q145 0 247.5 102.5t102.5 247.5t-102.5 247.5t-247.5 102.5h-266zM150 50v600h216q62 0 117 -24q56 -23 95 -64q41 -40 65 -95q23 -57 23 -117t-23 -117q-24 -55 -65 -95q-39 -41 -95 -64
q-55 -24 -117 -24h-216z" />
    <glyph glyph-name="Dcroat" unicode="&#x110;" horiz-adv-x="827" 
d="M151 700h266q145 0 247.5 -102.5t102.5 -247.5t-102.5 -247.5t-247.5 -102.5h-266v329h-91v43h91v328zM201 50h216q61 0 117 24q56 23 95 64q41 40 65 95q23 57 23 117t-23 117q-24 55 -65 95q-39 41 -95 64q-56 24 -117 24h-216v-278h91v-43h-91v-279z" />
    <glyph glyph-name="dcroat" unicode="&#x111;" horiz-adv-x="827" 
d="M151 700h266q145 0 247.5 -102.5t102.5 -247.5t-102.5 -247.5t-247.5 -102.5h-266v329h-91v43h91v328zM201 50h216q61 0 117 24q56 23 95 64q41 40 65 95q23 57 23 117t-23 117q-24 55 -65 95q-39 41 -95 64q-56 24 -117 24h-216v-278h91v-43h-91v-279z" />
    <glyph glyph-name="Emacron" unicode="&#x112;" horiz-adv-x="535" 
d="M213 851h110v-43h-110v43zM435 700v-50h-335v50h335zM435 325h-335v50h335v-50zM435 0h-335v50h335v-50z" />
    <glyph glyph-name="emacron" unicode="&#x113;" horiz-adv-x="520" 
d="M213 851h110v-43h-110v43zM150 650v-275h284v-50h-284v-275h284v-50h-334v700h334v-50h-284z" />
    <glyph glyph-name="Edotaccent" unicode="&#x116;" horiz-adv-x="534" 
d="M307 829q0 -17 -11.5 -28.5t-28.5 -11.5t-28.5 11.5t-11.5 28.5t11.5 28.5t28.5 11.5t28.5 -11.5t11.5 -28.5zM434 700v-50h-334v50h334zM434 325h-334v50h334v-50zM434 0h-334v50h334v-50z" />
    <glyph glyph-name="edotaccent" unicode="&#x117;" horiz-adv-x="519" 
d="M307 829q0 -17 -11.5 -28.5t-28.5 -11.5t-28.5 11.5t-11.5 28.5t11.5 28.5t28.5 11.5t28.5 -11.5t11.5 -28.5zM150 650v-275h284v-50h-284v-275h284v-50h-334v700h334v-50h-284z" />
    <glyph glyph-name="Eogonek" unicode="&#x118;" horiz-adv-x="490" 
d="M414 700v-50h-334v50h334zM414 375v-50h-334v50h334zM460 -113v-50h-64q-34 0 -57.5 24t-23.5 58q0 14 4 25v1l22 55h-261v50h334l-48 -122q-1 -3 -1 -9q0 -13 9 -22.5t22 -9.5h64z" />
    <glyph glyph-name="eogonek" unicode="&#x119;" horiz-adv-x="539" 
d="M479 -113v-50h-63q-34 0 -57.5 24t-23.5 58q0 14 4 25v1l22 55h-261v700h334v-50h-284v-275h284v-50h-284v-275h284l-48 -122q-1 -3 -1 -9q0 -13 9 -22.5t22 -9.5h63z" />
    <glyph glyph-name="Ecaron" unicode="&#x11a;" horiz-adv-x="535" 
d="M432 904l-165 -108l-165 108l23 36l142 -92l142 92zM435 700v-50h-335v50h335zM435 325h-335v50h335v-50zM435 0h-335v50h335v-50z" />
    <glyph glyph-name="ecaron" unicode="&#x11b;" horiz-adv-x="520" 
d="M432 904l-165 -108l-165 108l23 36l142 -92l142 92zM150 650v-275h284v-50h-284v-275h284v-50h-334v700h334v-50h-284z" />
    <glyph glyph-name="Gbreve" unicode="&#x11e;" horiz-adv-x="819" 
d="M460 873h43q0 -39 -27.5 -66.5t-65.5 -27.5q-39 0 -66.5 27.5t-27.5 66.5h43q0 -21 14.5 -36t36.5 -15q21 0 35.5 15t14.5 36zM724 98l-38 37q-49 -63 -121.5 -99t-154.5 -36q-145 0 -247.5 102.5t-102.5 247.5t102.5 247.5t247.5 102.5q139 0 240 -95l-33 -37
q-40 37 -90 58q-55 24 -117 24t-117 -24q-54 -23 -95 -64q-40 -38 -64 -95q-24 -55 -24 -117t24 -117q24 -57 64 -95q41 -41 95 -64q55 -24 117 -24t117 24q56 23 95 64q13 12 29 33l-187 185h71l224 -223z" />
    <glyph glyph-name="gbreve" unicode="&#x11f;" horiz-adv-x="819" 
d="M460 873h43q0 -39 -27.5 -66.5t-65.5 -27.5q-39 0 -66.5 27.5t-27.5 66.5h43q0 -21 14.5 -36t36.5 -15q21 0 35.5 15t14.5 36zM724 98l-38 37q-49 -63 -121.5 -99t-154.5 -36q-145 0 -247.5 102.5t-102.5 247.5t102.5 247.5t247.5 102.5q139 0 240 -95l-33 -37
q-40 37 -90 58q-55 24 -117 24t-117 -24q-54 -23 -95 -64q-40 -38 -64 -95q-24 -55 -24 -117t24 -117q24 -57 64 -95q41 -41 95 -64q55 -24 117 -24t117 24q56 23 95 64q13 12 29 33l-187 185h71l224 -223z" />
    <glyph glyph-name="Gdotaccent" unicode="&#x120;" horiz-adv-x="819" 
d="M450 829q0 -17 -12 -28.5t-28 -11.5t-28 11.5t-12 28.5t12 28.5t28 11.5t28 -11.5t12 -28.5zM535 356l224 -223l-35 -35l-38 37q-49 -63 -121.5 -99t-154.5 -36q-145 0 -247.5 102.5t-102.5 247.5t102.5 247.5t247.5 102.5q139 0 240 -95l-33 -37q-40 37 -90 58
q-55 24 -117 24t-117 -24q-54 -23 -95 -64q-40 -38 -64 -95q-24 -55 -24 -117t24 -117q24 -57 64 -95q41 -41 95 -64q55 -24 117 -24t117 24q56 23 95 64q13 12 29 33l-187 185h71z" />
    <glyph glyph-name="gdotaccent" unicode="&#x121;" horiz-adv-x="819" 
d="M450 829q0 -17 -12 -28.5t-28 -11.5t-28 11.5t-12 28.5t12 28.5t28 11.5t28 -11.5t12 -28.5zM535 356l224 -223l-35 -35l-38 37q-49 -63 -121.5 -99t-154.5 -36q-145 0 -247.5 102.5t-102.5 247.5t102.5 247.5t247.5 102.5q139 0 240 -95l-33 -37q-40 37 -90 58
q-55 24 -117 24t-117 -24q-54 -23 -95 -64q-40 -38 -64 -95q-24 -55 -24 -117t24 -117q24 -57 64 -95q41 -41 95 -64q55 -24 117 -24t117 24q56 23 95 64q13 12 29 33l-187 185h71z" />
    <glyph glyph-name="Gcommaaccent" unicode="&#x122;" horiz-adv-x="819" 
d="M759 133l-35 -35l-38 37q-46 -58 -111.5 -93.5t-140.5 -41.5v-108h-50v108q-136 11 -230 111.5t-94 238.5q0 145 102.5 247.5t247.5 102.5q139 0 240 -95l-33 -37q-40 37 -90 58q-55 24 -117 24t-117 -24q-54 -23 -95 -64q-40 -38 -64 -95q-24 -55 -24 -117t24 -117
q24 -57 64 -95q41 -41 95 -64q55 -24 117 -24t117 24q56 23 95 64q13 12 29 33l-187 185h71z" />
    <glyph glyph-name="gcommaaccent" unicode="&#x123;" horiz-adv-x="819" 
d="M759 133l-35 -35l-38 37q-46 -58 -111.5 -93.5t-140.5 -41.5v-108h-50v108q-136 11 -230 111.5t-94 238.5q0 145 102.5 247.5t247.5 102.5q139 0 240 -95l-33 -37q-40 37 -90 58q-55 24 -117 24t-117 -24q-54 -23 -95 -64q-40 -38 -64 -95q-24 -55 -24 -117t24 -117
q24 -57 64 -95q41 -41 95 -64q55 -24 117 -24t117 24q56 23 95 64q13 12 29 33l-187 185h71z" />
    <glyph glyph-name="Hbar" unicode="&#x126;" horiz-adv-x="685" 
d="M535 700h50v-700h-50v112h-385v-112h-50v700h50v-252h385v252zM535 398h-385v-236h385v236z" />
    <glyph glyph-name="hbar" unicode="&#x127;" horiz-adv-x="685" 
d="M535 700h50v-700h-50v112h-385v-112h-50v700h50v-252h385v252zM535 398h-385v-236h385v236z" />
    <glyph glyph-name="Imacron" unicode="&#x12a;" horiz-adv-x="311" 
d="M211 851h-111v-43h111v43zM131 700v-700h50v700h-50z" />
    <glyph glyph-name="imacron" unicode="&#x12b;" horiz-adv-x="251" 
d="M181 851h-111v-43h111v43zM101 700v-700h50v700h-50z" />
    <glyph glyph-name="Iogonek" unicode="&#x12e;" horiz-adv-x="271" 
d="M110 700h50v-700h-50v700zM206 0l-29 -75q-2 -6 -2 -10q0 -14 10.5 -24.5t24.5 -10.5h51v-43h-51q-32 0 -55 23t-23 55q0 8 4 24l1 1l23 60h46z" />
    <glyph glyph-name="iogonek" unicode="&#x12f;" horiz-adv-x="201" 
d="M70 700h50v-700h-50v700zM166 0l-29 -75q-2 -6 -2 -10q0 -14 10.5 -24.5t24.5 -10.5h51v-43h-51q-32 0 -55 23t-23 55q0 8 4 24l1 1l23 60h46z" />
    <glyph glyph-name="Idotaccent" unicode="&#x130;" horiz-adv-x="280" 
d="M140 869q16 0 28 -11.5t12 -28.5t-12 -28.5t-28 -11.5t-28 11.5t-12 28.5t12 28.5t28 11.5zM115 700h50v-700h-50v700z" />
    <glyph glyph-name="dotlessi" unicode="&#x131;" 
 />
    <glyph glyph-name="ij" unicode="&#x133;" horiz-adv-x="889" 
 />
    <glyph glyph-name="Kcommaaccent" unicode="&#x136;" horiz-adv-x="669" 
d="M528 700h61l-214 -306l207 -394h-56l-183 348l-243 -348v700h50v-541zM358 -93h-50v152l25 36l25 -47v-141z" />
    <glyph glyph-name="kcommaaccent" unicode="&#x137;" horiz-adv-x="619" 
d="M508 700h61l-214 -306l207 -394h-56l-183 348l-243 -348v700h50v-541zM338 -93h-50v152l25 36l25 -47v-141z" />
    <glyph glyph-name="Lacute" unicode="&#x139;" horiz-adv-x="520" 
d="M100 779l64 148h55l-65 -148h-54zM100 700h50v-650h285v-50h-335v700z" />
    <glyph glyph-name="lacute" unicode="&#x13a;" horiz-adv-x="520" 
d="M100 779l64 148h55l-65 -148h-54zM100 700h50v-650h285v-50h-335v700z" />
    <glyph glyph-name="Lcommaaccent" unicode="&#x13b;" horiz-adv-x="520" 
d="M385 -108h-52l34 108h-267v700h50v-650h285z" />
    <glyph glyph-name="lcommaaccent" unicode="&#x13c;" horiz-adv-x="520" 
d="M385 -108h-52l34 108h-267v700h50v-650h285z" />
    <glyph glyph-name="lcaron" unicode="&#x13e;" horiz-adv-x="520" 
d="M100 700h50v-650h285v-50h-335v700zM240 552v148h50v-148h-50z" />
    <glyph glyph-name="Ldot" unicode="&#x13f;" horiz-adv-x="520" 
d="M100 700h50v-650h285v-50h-335v700zM346 362q0 -16 -12 -28t-28 -12t-28 12t-12 28t12 28t28 12t28 -12t12 -28z" />
    <glyph glyph-name="ldot" unicode="&#x140;" horiz-adv-x="485" 
d="M80 700h50v-650h285v-50h-335v700zM326 362q0 -16 -12 -28t-28 -12t-28 12t-12 28t12 28t28 12t28 -12t12 -28z" />
    <glyph glyph-name="Lslash" unicode="&#x141;" horiz-adv-x="595" 
d="M510 0h-335v312l-105 -80v54l105 80v334h50v-295l104 80v-54l-104 -80v-301h285v-50z" />
    <glyph glyph-name="lslash" unicode="&#x142;" horiz-adv-x="550" 
d="M480 0h-335v312l-105 -80v54l105 80v334h50v-295l104 80v-54l-104 -80v-301h285v-50z" />
    <glyph glyph-name="Nacute" unicode="&#x143;" horiz-adv-x="686" 
d="M316 779l64 148h55l-65 -148h-54zM536 700h50v-700h-50v301l-386 297v-598h-50v700l436 -336v336z" />
    <glyph glyph-name="nacute" unicode="&#x144;" horiz-adv-x="686" 
d="M316 779l64 148h55l-65 -148h-54zM536 700h50v-700h-50v301l-386 297v-598h-50v700l436 -336v336z" />
    <glyph glyph-name="Ncommaaccent" unicode="&#x145;" horiz-adv-x="686" 
d="M536 700h50v-700h-50v301l-386 297v-598h-50v700l436 -336v336zM368 31v-119h-50v163h1z" />
    <glyph glyph-name="ncommaaccent" unicode="&#x146;" horiz-adv-x="686" 
d="M536 700h50v-700h-50v301l-386 297v-598h-50v700l436 -336v336zM368 31v-119h-50v163h1z" />
    <glyph glyph-name="Ncaron" unicode="&#x147;" horiz-adv-x="686" 
d="M343 796l-165 108l23 36l142 -92l143 92l23 -36zM536 700h50v-700h-50v301l-386 297v-598h-50v700l436 -336v336z" />
    <glyph glyph-name="ncaron" unicode="&#x148;" horiz-adv-x="686" 
d="M343 796l-165 108l23 36l142 -92l143 92l23 -36zM536 700h50v-700h-50v301l-386 297v-598h-50v700l436 -336v336z" />
    <glyph glyph-name="Eng" unicode="&#x14a;" horiz-adv-x="687" 
d="M587 700v-737q0 -61 -43 -104t-104 -43v50q40 0 68.5 28.5t28.5 68.5v339l-387 297v-599h-50v700l437 -335v335h50z" />
    <glyph glyph-name="eng" unicode="&#x14b;" horiz-adv-x="687" 
d="M587 700v-737q0 -61 -43 -104t-104 -43v50q40 0 68.5 28.5t28.5 68.5v339l-387 297v-599h-50v700l437 -335v335h50z" />
    <glyph glyph-name="Omacron" unicode="&#x14c;" horiz-adv-x="820" 
d="M465 808h-110v43h110v-43zM410 700q145 0 247.5 -102.5t102.5 -247.5t-102.5 -247.5t-247.5 -102.5t-247.5 102.5t-102.5 247.5t102.5 247.5t247.5 102.5zM710 350q0 62 -24 117q-24 57 -64 95q-41 41 -95 64q-56 24 -117 24q-62 0 -117 -24q-56 -23 -95 -64
q-39 -37 -65 -95q-23 -57 -23 -117t23 -117q26 -58 65 -95q39 -41 95 -64q55 -24 117 -24t117 24q54 23 95 64q40 38 64 95q24 55 24 117z" />
    <glyph glyph-name="omacron" unicode="&#x14d;" horiz-adv-x="820" 
d="M465 808h-110v43h110v-43zM410 700q145 0 247.5 -102.5t102.5 -247.5t-102.5 -247.5t-247.5 -102.5t-247.5 102.5t-102.5 247.5t102.5 247.5t247.5 102.5zM710 350q0 62 -24 117q-24 57 -64 95q-41 41 -95 64q-56 24 -117 24q-62 0 -117 -24q-56 -23 -95 -64
q-39 -37 -65 -95q-23 -57 -23 -117t23 -117q26 -58 65 -95q39 -41 95 -64q55 -24 117 -24t117 24q54 23 95 64q40 38 64 95q24 55 24 117z" />
    <glyph glyph-name="Ohungarumlaut" unicode="&#x150;" horiz-adv-x="820" 
d="M383 894h55l-64 -148h-55zM447 746l64 148h54l-64 -148h-54zM410 700q145 0 247.5 -102.5t102.5 -247.5t-102.5 -247.5t-247.5 -102.5t-247.5 102.5t-102.5 247.5t102.5 247.5t247.5 102.5zM710 350q0 62 -24 117q-24 57 -64 95q-41 41 -95 64q-56 24 -117 24
q-62 0 -117 -24q-56 -23 -95 -64q-39 -37 -65 -95q-23 -57 -23 -117t23 -117q26 -58 65 -95q39 -41 95 -64q55 -24 117 -24t117 24q54 23 95 64q40 38 64 95q24 55 24 117z" />
    <glyph glyph-name="ohungarumlaut" unicode="&#x151;" horiz-adv-x="820" 
d="M383 894h55l-64 -148h-55zM447 746l64 148h54l-64 -148h-54zM410 700q145 0 247.5 -102.5t102.5 -247.5t-102.5 -247.5t-247.5 -102.5t-247.5 102.5t-102.5 247.5t102.5 247.5t247.5 102.5zM710 350q0 62 -24 117q-24 57 -64 95q-41 41 -95 64q-56 24 -117 24
q-62 0 -117 -24q-56 -23 -95 -64q-39 -37 -65 -95q-23 -57 -23 -117t23 -117q26 -58 65 -95q39 -41 95 -64q55 -24 117 -24t117 24q54 23 95 64q40 38 64 95q24 55 24 117z" />
    <glyph glyph-name="oe" unicode="&#x153;" horiz-adv-x="814" 
d="M744 0h-334q-145 0 -247.5 102.5t-102.5 247.5t102.5 247.5t247.5 102.5h334v-50h-284v-275h284v-50h-284v-275h284v-50zM410 50v600q-62 0 -117 -24q-56 -23 -95 -64q-39 -37 -65 -95q-23 -57 -23 -117t23 -117q26 -58 65 -95q39 -41 95 -64q55 -24 117 -24z" />
    <glyph glyph-name="Racute" unicode="&#x154;" horiz-adv-x="688" 
d="M354 779h-54l64 148h54zM100 700h221q123 0 210 -87t87 -210q0 -89 -47 -161.5t-125 -108.5l83 -133h-59l-179 287h59l69 -111q43 18 77 52q32 30 53 78q19 45 19 97q0 51 -19 96q-21 47 -53 79q-36 34 -79 53q-48 19 -96 19h-171v-650h-50v700z" />
    <glyph glyph-name="racute" unicode="&#x155;" horiz-adv-x="688" 
d="M354 779h-54l64 148h54zM100 700h221q123 0 210 -87t87 -210q0 -89 -47 -161.5t-125 -108.5l83 -133h-59l-179 287h59l69 -111q43 18 77 52q32 30 53 78q19 45 19 97q0 51 -19 96q-21 47 -53 79q-36 34 -79 53q-48 19 -96 19h-171v-650h-50v700z" />
    <glyph glyph-name="Rcommaaccent" unicode="&#x156;" horiz-adv-x="688" 
d="M100 700h221q123 0 210 -87t87 -210q0 -89 -47 -161.5t-125 -108.5l83 -133h-59l-179 287h59l69 -111q43 18 77 52q32 30 53 78q19 45 19 97q0 51 -19 96q-21 47 -53 79q-36 34 -79 53q-48 19 -96 19h-171v-650h-50v700zM329 -88h-50v164l50 -79v-85z" />
    <glyph glyph-name="rcommaaccent" unicode="&#x157;" horiz-adv-x="688" 
d="M100 700h221q123 0 210 -87t87 -210q0 -89 -47 -161.5t-125 -108.5l83 -133h-59l-179 287h59l69 -111q43 18 77 52q32 30 53 78q19 45 19 97q0 51 -19 96q-21 47 -53 79q-36 34 -79 53q-48 19 -96 19h-171v-650h-50v700zM329 -88h-50v164l50 -79v-85z" />
    <glyph glyph-name="Rcaron" unicode="&#x158;" horiz-adv-x="688" 
d="M486 904l-165 -108l-165 108l23 36l142 -92l142 92zM100 700h221q123 0 210 -87t87 -210q0 -89 -47 -161.5t-125 -108.5l83 -133h-59l-179 287h59l69 -111q43 18 77 52q32 30 53 78q19 45 19 97q0 51 -19 96q-21 47 -53 79q-36 34 -79 53q-48 19 -96 19h-171v-650h-50
v700z" />
    <glyph glyph-name="rcaron" unicode="&#x159;" horiz-adv-x="688" 
d="M486 904l-165 -108l-165 108l23 36l142 -92l142 92zM100 700h221q123 0 210 -87t87 -210q0 -89 -47 -161.5t-125 -108.5l83 -133h-59l-179 287h59l69 -111q43 18 77 52q32 30 53 78q19 45 19 97q0 51 -19 96q-21 47 -53 79q-36 34 -79 53q-48 19 -96 19h-171v-650h-50
v700z" />
    <glyph glyph-name="Sacute" unicode="&#x15a;" horiz-adv-x="546" 
d="M300 779h-54l64 148h54zM450 523h-50q0 53 -37 90t-90 37t-90 -37t-37 -90t37 -90t90 -37q82 0 140 -58t58 -140t-58 -140t-140 -58t-140 58t-58 140h50q0 -60 43 -105q43 -43 105 -43t105 43q43 45 43 105t-43 105q-45 43 -105 43q-74 0 -125.5 53.5t-51.5 123.5
q0 73 52 125t125 52t125 -52t52 -125z" />
    <glyph glyph-name="sacute" unicode="&#x15b;" horiz-adv-x="546" 
d="M300 779h-54l64 148h54zM450 523h-50q0 53 -37 90t-90 37t-90 -37t-37 -90t37 -90t90 -37q82 0 140 -58t58 -140t-58 -140t-140 -58t-140 58t-58 140h50q0 -60 43 -105q43 -43 105 -43t105 43q43 45 43 105t-43 105q-45 43 -105 43q-74 0 -125.5 53.5t-51.5 123.5
q0 73 52 125t125 52t125 -52t52 -125z" />
    <glyph glyph-name="Scedilla" unicode="&#x15e;" horiz-adv-x="546" 
d="M450 523h-50q0 53 -37 90t-90 37t-90 -37t-37 -90t37 -90t90 -37q82 0 140 -58t58 -140q0 -74 -49 -129.5t-121 -66.5l-8 -18q21 -9 34 -28.5t13 -43.5q0 -32 -23 -55t-55 -23h-56l19 43h37q14 0 24.5 10.5t10.5 24.5t-10.5 24.5t-24.5 10.5h-33l24 54q-75 8 -126.5 64.5
t-51.5 132.5h50q0 -60 43 -105q43 -43 105 -43t105 43q43 45 43 105t-43 105q-45 43 -105 43q-74 0 -125.5 53.5t-51.5 123.5q0 73 52 125t125 52t125 -52t52 -125z" />
    <glyph glyph-name="scedilla" unicode="&#x15f;" horiz-adv-x="546" 
d="M450 523h-50q0 53 -37 90t-90 37t-90 -37t-37 -90t37 -90t90 -37q82 0 140 -58t58 -140q0 -74 -49 -129.5t-121 -66.5l-8 -18q21 -9 34 -28.5t13 -43.5q0 -32 -23 -55t-55 -23h-56l19 43h37q14 0 24.5 10.5t10.5 24.5t-10.5 24.5t-24.5 10.5h-33l24 54q-75 8 -126.5 64.5
t-51.5 132.5h50q0 -60 43 -105q43 -43 105 -43t105 43q43 45 43 105t-43 105q-45 43 -105 43q-74 0 -125.5 53.5t-51.5 123.5q0 73 52 125t125 52t125 -52t52 -125z" />
    <glyph glyph-name="Scaron" unicode="&#x160;" horiz-adv-x="546" 
d="M438 907l-23 36l-142 -92l-142 92l-24 -36l166 -107zM400 523h50q0 73 -52 125t-125 52t-125 -52t-52 -125q0 -70 51.5 -123.5t125.5 -53.5q60 0 105 -43q43 -45 43 -105t-43 -105q-43 -43 -105 -43t-105 43q-43 45 -43 105h-50q0 -82 58 -140t140 -58t140 58t58 140
t-58 140t-140 58q-53 0 -90 37t-37 90t37 90t90 37t90 -37t37 -90z" />
    <glyph glyph-name="scaron" unicode="&#x161;" horiz-adv-x="546" 
d="M438 907l-23 36l-142 -92l-142 92l-24 -36l166 -107zM400 523h50q0 73 -52 125t-125 52t-125 -52t-52 -125q0 -70 51.5 -123.5t125.5 -53.5q60 0 105 -43q43 -45 43 -105t-43 -105q-43 -43 -105 -43t-105 43q-43 45 -43 105h-50q0 -82 58 -140t140 -58t140 58t58 140
t-58 140t-140 58q-53 0 -90 37t-37 90t37 90t90 37t90 -37t37 -90z" />
    <glyph glyph-name="Tcedilla" unicode="&#x162;" horiz-adv-x="475" 
d="M262 650v-650h36q32 0 54.5 -23t22.5 -55t-22.5 -54.5t-54.5 -22.5h-74l21 43h53q14 0 24 10t10 24t-10 24.5t-24 10.5h-86v693h-142v50h335v-50h-143z" />
    <glyph glyph-name="tcedilla" unicode="&#x163;" horiz-adv-x="475" 
d="M262 650v-650h36q32 0 54.5 -23t22.5 -55t-22.5 -54.5t-54.5 -22.5h-74l21 43h53q14 0 24 10t10 24t-10 24.5t-24 10.5h-86v693h-142v50h335v-50h-143z" />
    <glyph glyph-name="Tcaron" unicode="&#x164;" horiz-adv-x="475" 
d="M403 904l-166 -108l-165 108l23 36l142 -92l143 92zM70 700h335v-50h-143v-650h-50v650h-142v50z" />
    <glyph glyph-name="tcaron" unicode="&#x165;" horiz-adv-x="475" 
d="M403 904l-166 -108l-165 108l23 36l142 -92l143 92zM70 700h335v-50h-143v-650h-50v650h-142v50z" />
    <glyph glyph-name="Tbar" unicode="&#x166;" horiz-adv-x="475" 
d="M212 518v132h-142v50h335v-50h-143v-132h143v-43h-143v-475h-50v475h-142v43h142z" />
    <glyph glyph-name="tbar" unicode="&#x167;" horiz-adv-x="475" 
d="M212 518v132h-142v50h335v-50h-143v-132h143v-43h-143v-475h-50v475h-142v43h142z" />
    <glyph glyph-name="Umacron" unicode="&#x16a;" horiz-adv-x="767" 
d="M329 849h110v-43h-110v43zM667 699v-415q0 -118 -83 -201t-200 -83q-118 0 -201 83t-83 201v415h50v-415q0 -50 19 -91q16 -41 50 -75q32 -32 74 -50q43 -18 91 -18q47 0 91 18q42 18 74 50q32 34 50 75q18 42 18 91v415h50z" />
    <glyph glyph-name="umacron" unicode="&#x16b;" horiz-adv-x="767" 
d="M329 849h110v-43h-110v43zM667 699v-415q0 -118 -83 -201t-200 -83q-118 0 -201 83t-83 201v415h50v-415q0 -50 19 -91q16 -41 50 -75q32 -32 74 -50q43 -18 91 -18q47 0 91 18q42 18 74 50q32 34 50 75q18 42 18 91v415h50z" />
    <glyph glyph-name="Uring" unicode="&#x16e;" horiz-adv-x="767" 
d="M319 831q0 27 19 46t46 19q26 0 45 -19t19 -46t-19 -46t-45 -19q-27 0 -46 19t-19 46zM425 831q0 17 -12 29.5t-29 12.5q-18 0 -30 -12.5t-12 -29.5t12 -29.5t30 -12.5q17 0 29 12.5t12 29.5zM667 699v-415q0 -118 -83 -201t-200 -83q-118 0 -201 83t-83 201v415h50v-415
q0 -49 18 -91q18 -41 50 -75q34 -32 75 -50q42 -18 91 -18q48 0 90 18q41 18 75 50q32 34 50 75q18 42 18 91v415h50z" />
    <glyph glyph-name="uring" unicode="&#x16f;" horiz-adv-x="767" 
d="M319 831q0 27 19 46t46 19q26 0 45 -19t19 -46t-19 -46t-45 -19q-27 0 -46 19t-19 46zM425 831q0 17 -12 29.5t-29 12.5q-18 0 -30 -12.5t-12 -29.5t12 -29.5t30 -12.5q17 0 29 12.5t12 29.5zM667 699v-415q0 -118 -83 -201t-200 -83q-118 0 -201 83t-83 201v415h50v-415
q0 -49 18 -91q18 -41 50 -75q34 -32 75 -50q42 -18 91 -18q48 0 90 18q41 18 75 50q32 34 50 75q18 42 18 91v415h50z" />
    <glyph glyph-name="Uhungarumlaut" unicode="&#x170;" horiz-adv-x="767" 
d="M357 893h54l-64 -148h-54zM420 745l64 148h54l-64 -148h-54zM667 699v-415q0 -118 -83 -201t-200 -83q-118 0 -201 83t-83 201v415h50v-415q0 -49 18 -91q18 -41 50 -75q34 -32 75 -50q42 -18 91 -18q48 0 90 18q41 18 75 50q32 34 50 75q18 42 18 91v415h50z" />
    <glyph glyph-name="uhungarumlaut" unicode="&#x171;" horiz-adv-x="767" 
d="M357 893h54l-64 -148h-54zM420 745l64 148h54l-64 -148h-54zM667 699v-415q0 -118 -83 -201t-200 -83q-118 0 -201 83t-83 201v415h50v-415q0 -49 18 -91q18 -41 50 -75q34 -32 75 -50q42 -18 91 -18q48 0 90 18q41 18 75 50q32 34 50 75q18 42 18 91v415h50z" />
    <glyph glyph-name="Uogonek" unicode="&#x172;" horiz-adv-x="767" 
d="M667 700v-415q0 -111 -75 -192.5t-185 -90.5l-30 -77q-2 -6 -2 -10q0 -14 10.5 -24.5t24.5 -10.5h51v-43h-51q-32 0 -55 23t-23 55q0 8 4 24l1 1l24 62q-110 8 -185.5 90t-75.5 193v415h50v-415q0 -49 18 -91q18 -41 50 -75q34 -32 74 -50q44 -18 91 -18t91 18
q42 18 74 50q34 34 50 75q19 41 19 91v415h50z" />
    <glyph glyph-name="uogonek" unicode="&#x173;" horiz-adv-x="767" 
d="M667 700v-415q0 -111 -75 -192.5t-185 -90.5l-30 -77q-2 -6 -2 -10q0 -14 10.5 -24.5t24.5 -10.5h51v-43h-51q-32 0 -55 23t-23 55q0 8 4 24l1 1l24 62q-110 8 -185.5 90t-75.5 193v415h50v-415q0 -49 18 -91q18 -41 50 -75q34 -32 74 -50q44 -18 91 -18t91 18
q42 18 74 50q34 34 50 75q19 41 19 91v415h50z" />
    <glyph glyph-name="Wcircumflex" unicode="&#x174;" horiz-adv-x="878" 
d="M298 876l-135 -63v48l135 62l135 -62v-48zM800 700h58l-409 -700l-152 260l-152 -260h-58l181 309l-228 391h58l199 -342l201 342h58l-230 -391l123 -210z" />
    <glyph glyph-name="wcircumflex" unicode="&#x175;" horiz-adv-x="878" 
d="M298 875l-135 -62v47l135 63l135 -63v-47zM800 700h58l-409 -700l-152 260l-152 -260h-58l181 309l-228 391h58l199 -342l201 342h58l-230 -391l123 -210z" />
    <glyph glyph-name="Ycircumflex" unicode="&#x176;" horiz-adv-x="592" 
d="M296 876l-135 -63l-18 39l153 71l153 -71l-18 -39zM517 700h55l-250 -516v-184h-50v184l-252 516h56l221 -453z" />
    <glyph glyph-name="ycircumflex" unicode="&#x177;" 
d="M296 876l-135 -63l-18 39l153 71l153 -71l-18 -39zM517 700h55l-250 -516v-184h-50v184l-252 516h56l221 -453z" />
    <glyph glyph-name="Ydieresis" unicode="&#x178;" horiz-adv-x="592" 
d="M274 821q0 -17 -12 -28.5t-28 -11.5t-28 11.5t-12 28.5t12 28.5t28 11.5t28 -11.5t12 -28.5zM398 821q0 -17 -12 -28.5t-28 -11.5t-28 11.5t-12 28.5t12 28.5t28 11.5t28 -11.5t12 -28.5zM517 700h55l-250 -516v-184h-50v184l-252 516h56l221 -453z" />
    <glyph glyph-name="Zacute" unicode="&#x179;" horiz-adv-x="665" 
d="M424 927l-64 -148h-55l64 148h55zM179 50h396v-50h-485l395 650h-395v50h484z" />
    <glyph glyph-name="zacute" unicode="&#x17a;" horiz-adv-x="665" 
d="M424 927l-64 -148h-55l64 148h55zM179 50h396v-50h-485l395 650h-395v50h484z" />
    <glyph glyph-name="Zdotaccent" unicode="&#x17b;" horiz-adv-x="665" 
d="M373 829q0 -17 -11.5 -28.5t-28.5 -11.5t-28.5 11.5t-11.5 28.5t11.5 28.5t28.5 11.5t28.5 -11.5t11.5 -28.5zM90 0l395 650h-395v50h484l-395 -650h396v-50h-485z" />
    <glyph glyph-name="zdotaccent" unicode="&#x17c;" horiz-adv-x="665" 
d="M373 829q0 -17 -11.5 -28.5t-28.5 -11.5t-28.5 11.5t-11.5 28.5t11.5 28.5t28.5 11.5t28.5 -11.5t11.5 -28.5zM90 0l395 650h-395v50h484l-395 -650h396v-50h-485z" />
    <glyph glyph-name="Zcaron" unicode="&#x17d;" horiz-adv-x="665" 
d="M498 907l-23 36l-142 -92l-142 92l-24 -36l166 -107zM574 700h-484v-50h395l-395 -650h485v50h-396z" />
    <glyph glyph-name="zcaron" unicode="&#x17e;" horiz-adv-x="665" 
d="M498 907l-23 36l-142 -92l-142 92l-24 -36l166 -107zM574 700h-484v-50h395l-395 -650h485v50h-396z" />
    <glyph glyph-name="Scommaaccent" unicode="&#x218;" horiz-adv-x="546" 
d="M450 523h-50q0 53 -37 90t-90 37t-90 -37t-37 -90t37 -90t90 -37q82 0 140 -58t58 -140q0 -75 -50 -131t-123 -65v-111h-50v111q-73 9 -123 65t-50 131h50q0 -60 43 -105q43 -43 105 -43t105 43q43 45 43 105t-43 105q-45 43 -105 43q-74 0 -125.5 53.5t-51.5 123.5
q0 73 52 125t125 52t125 -52t52 -125z" />
    <glyph glyph-name="scommaaccent" unicode="&#x219;" horiz-adv-x="546" 
d="M450 523h-50q0 53 -37 90t-90 37t-90 -37t-37 -90t37 -90t90 -37q82 0 140 -58t58 -140q0 -75 -50 -131t-123 -65v-111h-50v111q-73 9 -123 65t-50 131h50q0 -60 43 -105q43 -43 105 -43t105 43q43 45 43 105t-43 105q-45 43 -105 43q-74 0 -125.5 53.5t-51.5 123.5
q0 73 52 125t125 52t125 -52t52 -125z" />
    <glyph glyph-name="uni021A" unicode="&#x21a;" horiz-adv-x="475" 
d="M70 700h335v-50h-143v-650h-50v650h-142v50zM213 -34h50v-97h-50v97z" />
    <glyph glyph-name="uni021B" unicode="&#x21b;" horiz-adv-x="475" 
d="M70 700h335v-50h-143v-650h-50v650h-142v50zM213 -34h50v-97h-50v97z" />
    <glyph glyph-name="circumflex" unicode="&#x2c6;" 
 />
    <glyph glyph-name="caron" unicode="&#x2c7;" 
 />
    <glyph glyph-name="breve" unicode="&#x2d8;" 
 />
    <glyph glyph-name="dotaccent" unicode="&#x2d9;" 
 />
    <glyph glyph-name="ring" unicode="&#x2da;" 
 />
    <glyph glyph-name="ogonek" unicode="&#x2db;" 
 />
    <glyph glyph-name="tilde" unicode="&#x2dc;" 
 />
    <glyph glyph-name="hungarumlaut" unicode="&#x2dd;" 
 />
    <glyph glyph-name="Wgrave" unicode="&#x1e80;" horiz-adv-x="878" 
d="M233 925h-58l106 -180h58zM800 700h58l-409 -700l-152 260l-152 -260h-58l181 309l-228 391h58l199 -342l201 342h58l-230 -391l123 -210z" />
    <glyph glyph-name="wgrave" unicode="&#x1e81;" horiz-adv-x="878" 
d="M233 925h-58l106 -180h58zM800 700h58l-409 -700l-152 260l-152 -260h-58l181 309l-228 391h58l199 -342l201 342h58l-230 -391l123 -210z" />
    <glyph glyph-name="Wacute" unicode="&#x1e82;" horiz-adv-x="878" 
d="M629 925h58l-106 -180h-58zM800 700h58l-409 -700l-152 260l-152 -260h-58l181 309l-228 391h58l199 -342l201 342h58l-230 -391l123 -210z" />
    <glyph glyph-name="wacute" unicode="&#x1e83;" horiz-adv-x="878" 
d="M629 925h58l-106 -180h-58zM800 700h58l-409 -700l-152 260l-152 -260h-58l181 309l-228 391h58l199 -342l201 342h58l-230 -391l123 -210z" />
    <glyph glyph-name="Wdieresis" unicode="&#x1e84;" horiz-adv-x="878" 
d="M276 829q0 -17 -12 -28.5t-28 -11.5t-28 11.5t-12 28.5t12 28.5t28 11.5t28 -11.5t12 -28.5zM400 829q0 -17 -12 -28.5t-28 -11.5t-28 11.5t-12 28.5t12 28.5t28 11.5t28 -11.5t12 -28.5zM800 700h58l-409 -700l-152 260l-152 -260h-58l181 309l-228 391h58l199 -342
l201 342h58l-230 -391l123 -210z" />
    <glyph glyph-name="wdieresis" unicode="&#x1e85;" horiz-adv-x="878" 
d="M276 829q0 -17 -12 -28.5t-28 -11.5t-28 11.5t-12 28.5t12 28.5t28 11.5t28 -11.5t12 -28.5zM400 829q0 -17 -12 -28.5t-28 -11.5t-28 11.5t-12 28.5t12 28.5t28 11.5t28 -11.5t12 -28.5zM800 700h58l-409 -700l-152 260l-152 -260h-58l181 309l-228 391h58l199 -342
l201 342h58l-230 -391l123 -210z" />
    <glyph glyph-name="Ygrave" unicode="&#x1ef2;" horiz-adv-x="592" 
d="M75 700h-55l250 -516v-184h50v184l252 516h-56l-221 -453zM227 700h-48l76 -155h47z" />
    <glyph glyph-name="ygrave" unicode="&#x1ef3;" horiz-adv-x="592" 
d="M75 700h-55l250 -516v-184h50v184l252 516h-56l-221 -453zM227 700h-48l76 -155h47z" />
    <glyph glyph-name="endash" unicode="&#x2013;" horiz-adv-x="416" 
d="M336 375v-50h-256v50h256z" />
    <glyph glyph-name="emdash" unicode="&#x2014;" horiz-adv-x="546" 
d="M466 325h-386v50h386v-50z" />
    <glyph glyph-name="quoteleft" unicode="&#x2018;" horiz-adv-x="203" 
d="M80 700h43v-175h-43v175z" />
    <glyph glyph-name="quoteright" unicode="&#x2019;" horiz-adv-x="203" 
d="M80 700h43v-175h-43v175z" />
    <glyph glyph-name="quotesinglbase" unicode="&#x201a;" 
 />
    <glyph glyph-name="quotedblleft" unicode="&#x201c;" horiz-adv-x="284" 
d="M80 700h43v-175h-43v175zM161 700h43v-175h-43v175z" />
    <glyph glyph-name="quotedblright" unicode="&#x201d;" horiz-adv-x="284" 
d="M80 700h43v-175h-43v175zM161 700h43v-175h-43v175z" />
    <glyph glyph-name="quotedblbase" unicode="&#x201e;" 
 />
    <glyph glyph-name="dagger" unicode="&#x2020;" 
 />
    <glyph glyph-name="daggerdbl" unicode="&#x2021;" 
 />
    <glyph glyph-name="bullet" unicode="&#x2022;" horiz-adv-x="240" 
d="M160 350q0 16 -12 28t-28 12t-28 -12t-12 -28t12 -28t28 -12t28 12t12 28z" />
    <glyph glyph-name="ellipsis" unicode="&#x2026;" 
 />
    <glyph glyph-name="perthousand" unicode="&#x2030;" 
 />
    <glyph glyph-name="guilsinglleft" unicode="&#x2039;" horiz-adv-x="401" 
d="M50 350l271 156v-57l-171 -99l171 -99v-57z" />
    <glyph glyph-name="guilsinglright" unicode="&#x203a;" horiz-adv-x="391" 
d="M70 252l171 99l-171 99v57l271 -156l-271 -157v58z" />
    <glyph glyph-name="fraction" unicode="&#x2044;" 
 />
    <glyph glyph-name="Euro" unicode="&#x20ac;" horiz-adv-x="662" 
d="M123 234l1 -1q24 -57 64 -95q38 -40 95 -64q55 -24 117 -24t117 24q36 15 69 41l31 -39q-93 -76 -217 -76q-145 0 -247.5 102.5t-102.5 247.5t102.5 247.5t247.5 102.5q121 0 217 -75l-31 -40q-33 26 -69 41q-55 24 -117 24t-117 -24q-57 -24 -95 -64q-40 -38 -64 -95
q-8 -15 -13 -37h222l40 -50h-272q-1 -10 -1 -30q0 -35 7 -66h343l40 -50h-367z" />
    <glyph glyph-name="trademark" unicode="&#x2122;" horiz-adv-x="1266" 
 />
    <glyph glyph-name="partialdiff" unicode="&#x2202;" 
 />
    <glyph glyph-name="emptyset" unicode="&#x2205;" horiz-adv-x="800" 
d="M78 0l-28 28l89 89q-89 100 -89 233q0 145 102.5 247.5t247.5 102.5q133 0 233 -89l89 89l28 -28l-89 -89q89 -100 89 -233q0 -145 -102.5 -247.5t-247.5 -102.5q-133 0 -233 89zM174 153l423 423q-37 32 -80 50q-55 24 -117 24t-117 -24q-56 -23 -95 -64
q-39 -37 -65 -95q-23 -57 -23 -117t23 -117q20 -45 51 -80zM626 548l-423 -424q32 -29 80 -50q55 -24 117 -24t117 24q54 23 95 64q40 38 64 95q24 55 24 117t-24 117q-19 45 -50 81z" />
    <glyph glyph-name="product" unicode="&#x220f;" 
 />
    <glyph glyph-name="summation" unicode="&#x2211;" 
 />
    <glyph glyph-name="minus" unicode="&#x2212;" horiz-adv-x="416" 
d="M336 375v-50h-256v50h256z" />
    <glyph glyph-name="radical" unicode="&#x221a;" 
 />
    <glyph glyph-name="infinity" unicode="&#x221e;" 
 />
    <glyph glyph-name="integral" unicode="&#x222b;" 
 />
    <glyph glyph-name="approxequal" unicode="&#x2248;" horiz-adv-x="462" 
d="M278 469l104 -53l-20 -38l-84 43l-94 -48l-104 53l20 38l84 -43zM278 327l104 -53l-20 -38l-84 43l-94 -48l-104 53l20 38l84 -43z" />
    <glyph glyph-name="notequal" unicode="&#x2260;" 
 />
    <glyph glyph-name="lessequal" unicode="&#x2264;" 
 />
    <glyph glyph-name="greaterequal" unicode="&#x2265;" 
 />
    <glyph glyph-name="lozenge" unicode="&#x25ca;" 
 />
    <glyph glyph-name="zero.osf" 
 />
    <glyph glyph-name="one.osf" 
 />
    <glyph glyph-name="two.osf" 
 />
    <glyph glyph-name="three.osf" 
 />
    <glyph glyph-name="four.osf" 
 />
    <glyph glyph-name="five.osf" 
 />
    <glyph glyph-name="six.osf" 
 />
    <glyph glyph-name="seven.osf" 
 />
    <glyph glyph-name="eight.osf" 
 />
    <glyph glyph-name="nine.osf" 
 />
    <glyph glyph-name="A.001" horiz-adv-x="710" 
 />
    <glyph glyph-name="A.002" horiz-adv-x="710" 
 />
  </font>
</defs>
</svg>
