<?xml version="1.0" standalone="no"?>
<!DOCTYPE svg PUBLIC "-//W3C//DTD SVG 1.1//EN" "http://www.w3.org/Graphics/SVG/1.1/DTD/svg11.dtd" >
<svg xmlns="http://www.w3.org/2000/svg" xmlns:xlink="http://www.w3.org/1999/xlink" version="1.1">
<metadata>
Created by FontForge 20170731 at Sun Aug 18 21:57:17 2013
 By Aleksey,,,
copyright missing
</metadata>
<defs>
<font id="Recorda-Bold" horiz-adv-x="600" >
  <font-face 
    font-family="Recorda Bold"
    font-weight="400"
    font-stretch="normal"
    units-per-em="1000"
    panose-1="0 0 5 0 0 0 0 0 0 0"
    ascent="800"
    descent="-200"
    x-height="700"
    cap-height="700"
    bbox="0 -200 6086 4335"
    underline-thickness="50"
    underline-position="-200"
    unicode-range="U+0020-25CA"
  />
<missing-glyph horiz-adv-x="500" 
d="M0 0v700h500v-700h-500zM80 650l170 -255l170 255h-340zM220 350l-170 255v-510zM450 605l-170 -255l170 -255v510zM250 305l-170 -255h340z" />
    <glyph glyph-name=".notdef" horiz-adv-x="500" 
d="M0 0v700h500v-700h-500zM80 650l170 -255l170 255h-340zM220 350l-170 255v-510zM450 605l-170 -255l170 -255v510zM250 305l-170 -255h340z" />
    <glyph glyph-name=".null" horiz-adv-x="0" 
 />
    <glyph glyph-name="nonmarkingreturn" horiz-adv-x="333" 
 />
    <glyph glyph-name="space" unicode=" " horiz-adv-x="400" 
 />
    <glyph glyph-name="exclam" unicode="!" horiz-adv-x="275" 
d="M192 197h-110v503h110v-503zM137 0q-28 0 -47.5 20t-19.5 48t19.5 47.5t47.5 19.5t48 -19.5t20 -47.5t-19.5 -48t-48.5 -20z" />
    <glyph glyph-name="quotedbl" unicode="&#x22;" horiz-adv-x="360" 
d="M160 525h-80v175h80v-175zM200 700h80v-175h-80v175z" />
    <glyph glyph-name="numbersign" unicode="#" horiz-adv-x="603" 
d="M531 145h-96l-29 -145h-113l30 145h-110l-29 -145h-112l72 356h-94l22 110h94l30 145h112l-29 -145h109l30 145h112l-72 -356h95zM345 255l21 101h-110l-20 -101h109z" />
    <glyph glyph-name="dollar" unicode="$" horiz-adv-x="564" 
d="M475 500h-111q0 34 -24 58t-58 24t-58 -24t-24 -58q0 -35 24 -59t58 -24q88 0 150 -62t62 -150q0 -73 -44.5 -130t-112.5 -75v-94h-110v94q-69 18 -113 75t-44 130h111q0 -42 29 -71q29 -30 72 -30q42 0 71 30q30 28 30 71t-30 72q-30 30 -71 30q-80 0 -136.5 56.5
t-56.5 136.5q0 65 38.5 116t99.5 69v96h110v-96q61 -18 99.5 -69t38.5 -116z" />
    <glyph glyph-name="percent" unicode="%" horiz-adv-x="818" 
d="M209 700q62 0 106 -43.5t44 -105.5t-44 -106t-106 -44t-105.5 44t-43.5 106q0 61 44 105t105 44zM145 0l399 700h127l-399 -700h-127zM209 590q-16 0 -27.5 -11.5t-11.5 -27.5t11.5 -28t27.5 -12q17 0 28.5 11.5t11.5 28.5q0 16 -12 27.5t-28 11.5zM609 299
q62 0 105.5 -44t43.5 -106q0 -61 -44 -105t-105 -44t-105 44t-44 105q0 62 43.5 106t105.5 44zM609 189q-16 0 -27.5 -11.5t-11.5 -28.5q0 -16 11.5 -27.5t27.5 -11.5t27.5 11.5t11.5 27.5q0 17 -11.5 28.5t-27.5 11.5z" />
    <glyph glyph-name="ampersand" unicode="&#x26;" horiz-adv-x="695" 
d="M561 242l64 -90l-147 -105q-88 -61 -193 -43t-167 105q-62 88 -44 193t106 167l-91 129l96 68q62 44 137 31t119 -75t31 -137t-75 -119l-6 -5l113 -160zM242 572l85 -121l7 5q25 17 30 47.5t-13 55.5q-18 26 -47.5 30.5t-54.5 -13.5zM414 137l-171 242q-50 -35 -61 -96
q-9 -61 26 -110q33 -50 96 -61q60 -11 110 25z" />
    <glyph glyph-name="quotesingle" unicode="'" horiz-adv-x="240" 
d="M80 700h80v-175h-80v175z" />
    <glyph glyph-name="parenleft" unicode="(" horiz-adv-x="674" 
d="M324 99l-48 -99q-94 52 -150 145.5t-56 204.5t56 204.5t150 145.5l48 -99q-29 -16 -59 -45q-41 -40 -63 -93t-22 -113t22 -113t63 -93q30 -29 59 -45z" />
    <glyph glyph-name="parenright" unicode=")" horiz-adv-x="674" 
d="M350 99l48 -99q94 52 150 145.5t56 204.5t-56 204.5t-150 145.5l-48 -99q29 -16 60 -45q40 -41 62 -93q23 -55 23 -113t-23 -113q-22 -52 -62 -93q-31 -29 -60 -45z" />
    <glyph glyph-name="asterisk" unicode="*" horiz-adv-x="495" 
d="M342 700l93 -163l-93 -162h-188l-94 162l94 163h188zM212 650l36 -63l36 63h-72zM204 562l-36 63l-36 -63h72zM363 562l-36 63l-36 -63h72zM204 512h-72l36 -62zM363 512h-72l36 -62zM284 425l-36 62l-36 -62h72z" />
    <glyph glyph-name="plus" unicode="+" horiz-adv-x="637" 
d="M373 405h184v-110h-184v-183h-110v183h-183v110h183v184h110v-184z" />
    <glyph glyph-name="comma" unicode="," horiz-adv-x="268" 
d="M112 89h96l-52 -178h-96z" />
    <glyph glyph-name="hyphen" unicode="-" horiz-adv-x="416" 
d="M336 405v-110h-256v110h256z" />
    <glyph glyph-name="period" unicode="." horiz-adv-x="285" 
d="M205 68q0 28 -20 47.5t-48 19.5t-47.5 -19.5t-19.5 -47.5t19.5 -48t47.5 -20t48 20t20 48z" />
    <glyph glyph-name="slash" unicode="/" horiz-adv-x="453" 
d="M287 700h116l-237 -700h-116z" />
    <glyph glyph-name="zero" unicode="0" horiz-adv-x="820" 
d="M410 700q145 0 247.5 -102.5t102.5 -247.5t-102.5 -247.5t-247.5 -102.5t-247.5 102.5t-102.5 247.5t102.5 247.5t247.5 102.5zM284 554l330 -330q36 58 36 126q0 98 -70 170q-72 70 -170 70q-68 0 -126 -36zM536 146l-330 330q-36 -56 -36 -126q0 -98 70 -170
q70 -70 170 -70q68 0 126 36z" />
    <glyph glyph-name="one" unicode="1" horiz-adv-x="402" 
d="M302 700v-700h-110v590h-122v110h232z" />
    <glyph glyph-name="two" unicode="2" horiz-adv-x="620" 
d="M550 0v110h-232l177 204l2 2q2 2 5.5 7t4.5 7q41 59 41 134q0 98 -69 167q-71 69 -167 69q-97 0 -168 -69q-69 -71 -69 -167h110q0 52 37.5 89t89.5 37t89 -37t37 -89q0 -41 -22 -72q-1 -1 -2.5 -3.5t-2.5 -3.5l-334 -385h473z" />
    <glyph glyph-name="three" unicode="3" horiz-adv-x="723" 
d="M633 700l-159 -160q75 -33 122 -103t47 -155q0 -117 -82.5 -199.5t-198.5 -82.5q-117 0 -199.5 82.5t-82.5 199.5q0 12 1 18h110q-1 -6 -1 -18q0 -70 50 -122q52 -50 122 -50q69 0 121 50q50 52 50 122q0 69 -50 121q-40 40 -97 48l-93 -93l-79 78l154 154h-212v110h477z
" />
    <glyph glyph-name="four" unicode="4" horiz-adv-x="698" 
d="M502 0l-48 86h-384l331 614h125l-142 -264l244 -436h-126zM322 321l-68 -125h138z" />
    <glyph glyph-name="five" unicode="5" horiz-adv-x="648" 
d="M261 522h56q108 0 184.5 -76.5t76.5 -184.5t-76.5 -184.5t-184.5 -76.5q-102 0 -177 69l50 98q50 -57 127 -57q9 0 14 1q54 5 92 43q45 45 45 107t-45 107q-44 44 -106 44h-113l-36 -69l-98 50l161 307h238v-110h-172z" />
    <glyph glyph-name="six" unicode="6" horiz-adv-x="671" 
d="M404 700l-93 -150q8 1 24 1q114 0 195 -80.5t81 -194.5q0 -115 -81 -195.5t-195 -80.5t-194.5 80.5t-80.5 195.5q0 78 41 144l174 280h129zM170 276q0 -68 48 -118q50 -48 117 -48q69 0 117 48q49 49 49 118q0 68 -49 117q-48 48 -117 48q-67 0 -117 -48
q-48 -50 -48 -117z" />
    <glyph glyph-name="seven" unicode="7" horiz-adv-x="589" 
d="M60 700h479l-269 -700h-118l227 590h-319v110z" />
    <glyph glyph-name="eight" unicode="8" horiz-adv-x="609" 
d="M433 431q49 -32 77.5 -84t28.5 -112q0 -97 -68.5 -166t-165.5 -69t-166 69t-69 166q0 60 28.5 112t77.5 84q-36 45 -36 104q0 68 48.5 116.5t116.5 48.5t116.5 -48.5t48.5 -116.5q0 -57 -37 -104zM305 590q-23 0 -39 -16t-16 -39t16 -39t39 -16t39 16t16 39t-16 39
t-39 16zM393 147q36 35 36 88q0 52 -36 88q-38 36 -88 36q-52 0 -88 -36q-37 -37 -37 -88q0 -53 37 -88q35 -37 88 -37q51 0 88 37z" />
    <glyph glyph-name="nine" unicode="9" horiz-adv-x="671" 
d="M267 0l93 150q-8 -1 -24 -1q-114 0 -195 80.5t-81 195.5q0 114 81 194.5t195 80.5t194.5 -80.5t80.5 -194.5q0 -79 -41 -145l-174 -280h-129zM501 425q0 67 -48 117q-50 48 -117 48q-69 0 -117 -48q-49 -49 -49 -117q0 -69 49 -118q48 -48 117 -48q67 0 117 48
q48 50 48 118z" />
    <glyph glyph-name="colon" unicode=":" horiz-adv-x="275" 
d="M137 545q28 0 48 -20t20 -48t-20 -47.5t-48 -19.5t-47.5 19.5t-19.5 47.5t19.5 48t47.5 20zM137 291q28 0 48 -20t20 -48t-20 -47.5t-48 -19.5t-47.5 19.5t-19.5 47.5t19.5 48t47.5 20z" />
    <glyph glyph-name="semicolon" unicode=";" horiz-adv-x="312" 
d="M232 476q0 28 -19.5 47.5t-47.5 19.5t-48 -19.5t-20 -47.5t20 -48t48 -20t47.5 20t19.5 48zM80 158l37 128h96l-37 -128h-96z" />
    <glyph glyph-name="less" unicode="&#x3c;" horiz-adv-x="461" 
d="M60 350l331 240v-136l-144 -104l144 -104v-136z" />
    <glyph glyph-name="equal" unicode="=" horiz-adv-x="554" 
d="M80 488h394v-110h-394v110zM80 322h394v-110h-394v110z" />
    <glyph glyph-name="greater" unicode="&#x3e;" horiz-adv-x="461" 
d="M70 590l331 -240l-331 -240v136l144 104l-144 104v136z" />
    <glyph glyph-name="question" unicode="?" horiz-adv-x="540" 
d="M50 512l14 41q18 53 61 91q44 39 100 51q90 19 165 -30q76 -50 95 -138q12 -56 -5 -112q-16 -53 -58 -93l-2 -2l-2 -1l-4 -3l-7.5 -7.5l-11 -11t-13.5 -14.5t-14.5 -17.5t-14.5 -20.5t-13 -23t-10.5 -25.5t-6.5 -26.5h-111q9 85 69 163q4 6 16 20zM189 553l182 -117
q14 33 7 68q-10 44 -48 68.5t-82 14.5q-36 -8 -59 -34zM265 135q28 0 48 -19.5t20 -47.5t-19.5 -48t-48.5 -20q-28 0 -47.5 20t-19.5 48t19.5 47.5t47.5 19.5z" />
    <glyph glyph-name="at" unicode="@" horiz-adv-x="820" 
d="M410 700q145 0 247.5 -102.5t102.5 -247.5q0 -130 -84 -227.5t-209 -117.5q-32 -5 -57 -5q-145 0 -247.5 102.5t-102.5 247.5t102.5 247.5t247.5 102.5zM412 157h-2q-80 0 -136.5 56.5t-56.5 136.5t56.5 136.5t136.5 56.5q82 0 139 -59l20 46q-68 60 -159 60
q-98 0 -170 -70q-70 -72 -70 -170t70 -170q63 -63 152 -69zM468 291l25 59q0 33 -24 59q-26 24 -59 24t-59 -24q-24 -26 -24 -59t24 -59q26 -24 59 -24q36 0 58 24zM641 417l-118 -279q31 16 57 42q70 72 70 170q0 34 -9 67z" />
    <glyph glyph-name="A" unicode="A" horiz-adv-x="652" 
d="M632 0h-120l-315 132l-57 -132h-120l306 700zM448 146l-122 280l-84 -193z" />
    <glyph glyph-name="B" unicode="B" horiz-adv-x="708" 
d="M100 700h159q84 0 143.5 -60t59.5 -144q0 -26 -5 -45q77 -18 126.5 -80t49.5 -143q0 -95 -67 -161.5t-162 -66.5h-304v700zM210 402h49q38 0 66 28q27 26 27 66q0 39 -27 66t-66 27h-49v-187zM210 110h194q50 0 84 34q35 35 35 84q0 51 -35 84q-33 35 -84 35h-6
q-60 -55 -139 -55h-49v-182z" />
    <glyph glyph-name="C" unicode="C" horiz-adv-x="754" 
d="M601 508l83 72q-50 57 -119 88.5t-145 31.5q-73 0 -136 -28q-63 -26 -111 -75q-51 -51 -75 -111q-28 -63 -28 -136t28 -136q24 -60 75 -111q48 -49 111 -75q63 -28 136 -28q76 0 145 31.5t119 88.5l-83 72q-73 -82 -181 -82q-98 0 -170 70q-70 72 -70 170t70 170
q72 70 170 70q108 0 181 -82z" />
    <glyph glyph-name="D" unicode="D" horiz-adv-x="787" 
d="M100 700h277q145 0 247.5 -102.5t102.5 -247.5t-102.5 -247.5t-247.5 -102.5h-277v700zM210 110h167q99 0 169 70q71 71 71 170t-71 170q-70 70 -169 70h-167v-480z" />
    <glyph glyph-name="E" unicode="E" horiz-adv-x="542" 
d="M85 590v110h372v-110h-372zM85 295v110h372v-110h-372zM85 110h372v-110h-372v110z" />
    <glyph glyph-name="F" unicode="F" horiz-adv-x="558" 
d="M100 700h373v-110h-263v-185h263v-110h-263v-295h-110v700z" />
    <glyph glyph-name="G" unicode="G" horiz-adv-x="825" 
d="M697 82l-30 30q-104 -112 -257 -112q-145 0 -247.5 102.5t-102.5 247.5t102.5 247.5t247.5 102.5q139 0 240 -95l-73 -82q-70 67 -167 67q-98 0 -170 -70q-70 -72 -70 -170t70 -170q72 -70 170 -70q100 0 170 70l9 10l-128 127l78 79l236 -236z" />
    <glyph glyph-name="H" unicode="H" horiz-adv-x="720" 
d="M510 0v82h-300v-82h-110v700h110v-508h300v508h110v-700h-110z" />
    <glyph glyph-name="I" unicode="I" horiz-adv-x="330" 
d="M110 0h110v700h-110v-700z" />
    <glyph glyph-name="J" unicode="J" horiz-adv-x="680" 
d="M580 697v-437q0 -108 -76 -184t-184 -76q-107 0 -183.5 76t-76.5 184h110q0 -62 44 -106t106 -44t106 44q44 42 44 106v327h-150l51 110h209z" />
    <glyph glyph-name="K" unicode="K" horiz-adv-x="707" 
d="M432 373l195 -373h-124l-137 262l-156 -262h-110v700h110v-485l289 485h128z" />
    <glyph glyph-name="L" unicode="L" horiz-adv-x="557" 
d="M100 0v700h110v-590h262v-110h-372z" />
    <glyph glyph-name="M" unicode="M" horiz-adv-x="788" 
d="M578 0v414l-104 -110l-81 -87l-80 88l-103 112v-417h-110v700l294 -321l294 312v-691h-110z" />
    <glyph glyph-name="N" unicode="N" horiz-adv-x="720" 
d="M620 700v-700h-110l-300 234v-234h-110v700h110v-326l300 -234v560h110z" />
    <glyph glyph-name="O" unicode="O" horiz-adv-x="820" 
d="M410 700q145 0 247.5 -102.5t102.5 -247.5t-102.5 -247.5t-247.5 -102.5t-247.5 102.5t-102.5 247.5t102.5 247.5t247.5 102.5zM580 180q70 72 70 170t-70 170q-72 70 -170 70t-170 -70q-70 -72 -70 -170t70 -170q72 -70 170 -70t170 70z" />
    <glyph glyph-name="P" unicode="P" horiz-adv-x="710" 
d="M100 700h232q128 0 218 -90t90 -218t-90 -218t-218 -90h-122v-84h-110v700zM210 194h122q82 0 140 58q58 56 58 140t-58 140q-58 58 -140 58h-122v-396z" />
    <glyph glyph-name="Q" unicode="Q" horiz-adv-x="820" 
d="M410 700q145 0 247.5 -102.5t102.5 -247.5t-102.5 -247.5t-247.5 -102.5t-247.5 102.5t-102.5 247.5t102.5 247.5t247.5 102.5zM467 350l117 -164q66 68 66 164q0 99 -71 170q-70 70 -169 70q-100 0 -170 -70q-70 -72 -70 -170t70 -170q70 -70 170 -70q42 0 83 15
l-161 225h135z" />
    <glyph glyph-name="R" unicode="R" horiz-adv-x="710" 
d="M100 700h232q128 0 218 -90t90 -218q0 -80 -38.5 -149t-104.5 -111l84 -132h-130l-57 90q-30 -6 -62 -6h-122v-84h-110v700zM210 194h122q82 0 140 58q58 56 58 140t-58 140q-58 58 -140 58h-122v-396z" />
    <glyph glyph-name="S" unicode="S" horiz-adv-x="575" 
d="M481 507h-111q0 34 -24.5 58t-58.5 24t-58 -24t-24 -58t24 -58.5t58 -24.5q88 0 150.5 -62t62.5 -150t-62.5 -150t-150.5 -62t-150 62t-62 150h111q0 -41 30 -71q28 -30 71 -30t72 30q30 30 30 71q0 42 -30 72t-72 30q-80 0 -136.5 56.5t-56.5 136.5q0 79 57 136t136 57
q80 0 137 -56.5t57 -136.5z" />
    <glyph glyph-name="T" unicode="T" horiz-adv-x="512" 
d="M311 0h-110v590h-131v110h372v-110h-131v-590z" />
    <glyph glyph-name="U" unicode="U" horiz-adv-x="731" 
d="M641 700v-426q0 -114 -80.5 -194.5t-194.5 -80.5t-195 80.5t-81 194.5v426h110v-426q0 -70 49 -117q48 -48 117 -48q67 0 117 48q48 48 48 117v426h110z" />
    <glyph glyph-name="V" unicode="V" horiz-adv-x="650" 
d="M20 700h120l185 -424l185 424h120l-305 -700z" />
    <glyph glyph-name="W" unicode="W" horiz-adv-x="1034" 
d="M527 0l-170 244l-170 -244h-134l237 341l-250 359h134l183 -263l183 263h134l-250 -359l103 -148l353 507h134z" />
    <glyph glyph-name="X" unicode="X" horiz-adv-x="678" 
d="M198 700l141 -241l142 241h127l-205 -350l205 -350h-128l-141 241l-141 -241h-128l205 350l-205 350h128z" />
    <glyph glyph-name="Y" unicode="Y" horiz-adv-x="659" 
d="M386 0h-110v177l-256 523h123l188 -384l186 384h122l-253 -523v-177z" />
    <glyph glyph-name="Z" unicode="Z" horiz-adv-x="700" 
d="M278 110h332v-110h-520l332 590h-332v110h520z" />
    <glyph glyph-name="bracketleft" unicode="[" horiz-adv-x="429" 
d="M190 -90h139v-110h-249v1000h249v-110h-139v-780z" />
    <glyph glyph-name="backslash" unicode="\" horiz-adv-x="453" 
d="M166 700l237 -700h-116l-237 700h116z" />
    <glyph glyph-name="bracketright" unicode="]" horiz-adv-x="429" 
d="M239 -90h-139v-110h249v1000h-249v-110h139v-780z" />
    <glyph glyph-name="asciicircum" unicode="^" 
 />
    <glyph glyph-name="underscore" unicode="_" horiz-adv-x="593" 
d="M80 110h433v-110h-433v110z" />
    <glyph glyph-name="grave" unicode="`" 
 />
    <glyph glyph-name="a" unicode="a" horiz-adv-x="652" 
d="M632 0h-120l-315 132l-57 -132h-120l306 700zM448 146l-122 280l-84 -193z" />
    <glyph glyph-name="b" unicode="b" horiz-adv-x="708" 
d="M100 700h159q84 0 143.5 -60t59.5 -144q0 -26 -5 -45q77 -18 126.5 -80t49.5 -143q0 -95 -67 -161.5t-162 -66.5h-304v700zM210 402h49q38 0 66 28q27 26 27 66q0 39 -27 66t-66 27h-49v-187zM210 110h194q50 0 84 34q35 35 35 84q0 51 -35 84q-33 35 -84 35h-6
q-60 -55 -139 -55h-49v-182z" />
    <glyph glyph-name="c" unicode="c" horiz-adv-x="772" 
d="M610 508l83 72q-50 57 -119 88.5t-145 31.5q-73 0 -136 -28q-63 -26 -111 -75q-51 -51 -75 -111q-28 -63 -28 -136t28 -136q24 -60 75 -111q48 -49 111 -75q63 -28 136 -28q76 0 145 31.5t119 88.5l-83 72q-73 -82 -181 -82q-98 0 -170 70q-70 72 -70 170t70 170
q72 70 170 70q108 0 181 -82z" />
    <glyph glyph-name="d" unicode="d" horiz-adv-x="787" 
d="M100 700h277q145 0 247.5 -102.5t102.5 -247.5t-102.5 -247.5t-247.5 -102.5h-277v700zM210 110h167q99 0 169 70q71 71 71 170t-71 170q-70 70 -169 70h-167v-480z" />
    <glyph glyph-name="e" unicode="e" horiz-adv-x="557" 
d="M472 110v-110h-372v700h372v-110h-262v-185h262v-110h-262v-185h262z" />
    <glyph glyph-name="f" unicode="f" horiz-adv-x="558" 
d="M100 700h373v-110h-263v-185h263v-110h-263v-295h-110v700z" />
    <glyph glyph-name="g" unicode="g" horiz-adv-x="825" 
d="M697 82l-30 30q-104 -112 -257 -112q-145 0 -247.5 102.5t-102.5 247.5t102.5 247.5t247.5 102.5q139 0 240 -95l-73 -82q-70 67 -167 67q-98 0 -170 -70q-70 -72 -70 -170t70 -170q72 -70 170 -70q100 0 170 70l9 10l-128 127l78 79l236 -236z" />
    <glyph glyph-name="h" unicode="h" horiz-adv-x="720" 
d="M510 0v82h-300v-82h-110v700h110v-508h300v508h110v-700h-110z" />
    <glyph glyph-name="i" unicode="i" horiz-adv-x="330" 
d="M110 0h110v700h-110v-700z" />
    <glyph glyph-name="j" unicode="j" horiz-adv-x="700" 
d="M600 697v-437q0 -108 -76 -184t-184 -76q-107 0 -183.5 76t-76.5 184h110q0 -62 44 -106t106 -44t106 44q44 42 44 106v327h-150l51 110h209z" />
    <glyph glyph-name="k" unicode="k" horiz-adv-x="707" 
d="M432 373l195 -373h-124l-137 262l-156 -262h-110v700h110v-485l289 485h128z" />
    <glyph glyph-name="l" unicode="l" horiz-adv-x="557" 
d="M100 0v700h110v-590h262v-110h-372z" />
    <glyph glyph-name="m" unicode="m" horiz-adv-x="788" 
d="M578 0v414l-104 -110l-81 -87l-80 88l-103 112v-417h-110v700l294 -321l294 312v-691h-110z" />
    <glyph glyph-name="n" unicode="n" horiz-adv-x="720" 
d="M620 700v-700h-110l-300 234v-234h-110v700h110v-326l300 -234v560h110z" />
    <glyph glyph-name="o" unicode="o" horiz-adv-x="820" 
d="M410 700q145 0 247.5 -102.5t102.5 -247.5t-102.5 -247.5t-247.5 -102.5t-247.5 102.5t-102.5 247.5t102.5 247.5t247.5 102.5zM580 180q70 72 70 170t-70 170q-72 70 -170 70t-170 -70q-70 -72 -70 -170t70 -170q72 -70 170 -70t170 70z" />
    <glyph glyph-name="p" unicode="p" horiz-adv-x="710" 
d="M100 700h232q128 0 218 -90t90 -218t-90 -218t-218 -90h-122v-84h-110v700zM210 194h122q82 0 140 58q58 56 58 140t-58 140q-58 58 -140 58h-122v-396z" />
    <glyph glyph-name="q" unicode="q" horiz-adv-x="820" 
d="M410 700q145 0 247.5 -102.5t102.5 -247.5t-102.5 -247.5t-247.5 -102.5t-247.5 102.5t-102.5 247.5t102.5 247.5t247.5 102.5zM467 350l117 -164q66 68 66 164q0 99 -71 170q-70 70 -169 70q-100 0 -170 -70q-70 -72 -70 -170t70 -170q70 -70 170 -70q42 0 83 15
l-161 225h135z" />
    <glyph glyph-name="r" unicode="r" horiz-adv-x="710" 
d="M100 700h232q128 0 218 -90t90 -218q0 -80 -38.5 -149t-104.5 -111l84 -132h-130l-57 90q-30 -6 -62 -6h-122v-84h-110v700zM210 194h122q82 0 140 58q58 56 58 140t-58 140q-58 58 -140 58h-122v-396z" />
    <glyph glyph-name="s" unicode="s" horiz-adv-x="575" 
d="M481 507h-111q0 34 -24.5 58t-58.5 24t-58 -24t-24 -58t24 -58.5t58 -24.5q88 0 150.5 -62t62.5 -150t-62.5 -150t-150.5 -62t-150 62t-62 150h111q0 -41 30 -71q28 -30 71 -30t72 30q30 30 30 71q0 42 -30 72t-72 30q-80 0 -136.5 56.5t-56.5 136.5q0 79 57 136t136 57
q80 0 137 -56.5t57 -136.5z" />
    <glyph glyph-name="t" unicode="t" horiz-adv-x="512" 
d="M311 0h-110v590h-131v110h372v-110h-131v-590z" />
    <glyph glyph-name="u" unicode="u" horiz-adv-x="731" 
d="M641 700v-426q0 -114 -80.5 -194.5t-194.5 -80.5t-195 80.5t-81 194.5v426h110v-426q0 -70 49 -117q48 -48 117 -48q67 0 117 48q48 48 48 117v426h110z" />
    <glyph glyph-name="v" unicode="v" horiz-adv-x="650" 
d="M20 700h120l185 -424l185 424h120l-305 -700z" />
    <glyph glyph-name="w" unicode="w" horiz-adv-x="1034" 
d="M527 0l-170 244l-169 -244h-134l236 341l-250 359h134l183 -263l184 263h134l-251 -359l103 -148l353 507h134z" />
    <glyph glyph-name="x" unicode="x" horiz-adv-x="678" 
d="M198 700l141 -241l142 241h127l-205 -350l205 -350h-128l-141 241l-141 -241h-128l205 350l-205 350h128z" />
    <glyph glyph-name="y" unicode="y" horiz-adv-x="659" 
d="M386 0h-110v177l-256 523h123l188 -384l186 384h122l-253 -523v-177z" />
    <glyph glyph-name="z" unicode="z" horiz-adv-x="700" 
d="M278 110h332v-110h-520l332 590h-332v110h520z" />
    <glyph glyph-name="braceleft" unicode="{" horiz-adv-x="335" 
d="M106 432v109q0 66 47 112.5t112 46.5v-110q-20 0 -34.5 -14.5t-14.5 -34.5v-109q0 -45 -27 -82q27 -37 27 -82v-109q0 -20 14.5 -34.5t34.5 -14.5v-110q-66 0 -112.5 46.5t-46.5 112.5v109q0 11 -8 19t-19 8h-9v110h9q11 0 19 8t8 19z" />
    <glyph glyph-name="bar" unicode="|" 
 />
    <glyph glyph-name="braceright" unicode="}" horiz-adv-x="336" 
d="M229 541v-109q0 -11 8 -19t19 -8h10v-110h-10q-11 0 -19 -8t-8 -19v-109q0 -66 -46.5 -112.5t-112.5 -46.5v110q20 0 34.5 14.5t14.5 34.5v109q0 46 28 82q-28 36 -28 82v109q0 20 -14.5 34.5t-34.5 14.5v110q66 0 112.5 -46.5t46.5 -112.5z" />
    <glyph glyph-name="asciitilde" unicode="~" horiz-adv-x="504" 
d="M114 410l86 -40l104 48l120 -56l-34 -72l-86 40l-104 -48l-120 56z" />
    <glyph glyph-name="exclamdown" unicode="&#xa1;" 
 />
    <glyph glyph-name="cent" unicode="&#xa2;" horiz-adv-x="734" 
d="M355 -92v92q-47 8 -81 24q-63 26 -111 75q-51 51 -75 111q-28 63 -28 136t28 136q24 60 75 111q48 49 111 75q39 16 81 24v91h110v-91q124 -20 209 -116l-83 -72q-73 82 -181 82q-98 0 -170 -70q-70 -72 -70 -170t70 -170q72 -70 170 -70q108 0 181 82l83 -72
q-85 -96 -209 -116v-92h-110z" />
    <glyph glyph-name="sterling" unicode="&#xa3;" horiz-adv-x="601" 
d="M551 0h-491v110h74v335q0 106 74.5 180.5t180.5 74.5q91 0 162 -58l-68 -86q-42 34 -94 34q-59 0 -103 -42q-42 -44 -42 -103v-113h199v-110h-199v-112h307v-110z" />
    <glyph glyph-name="currency" unicode="&#xa4;" horiz-adv-x="510" 
d="M430 454l-50 -50q11 -27 11 -55t-11 -53l50 -50l-71 -71l-49 49q-27 -11 -56 -11q-27 0 -54 11l-49 -49l-71 71l49 49q-11 27 -11 54q0 30 11 55l-49 50l71 71l50 -50q25 11 53 11t55 -11l50 50zM254 293q23 0 40 16.5t17 39.5q0 24 -17 40.5t-40 16.5t-39.5 -16.5
t-16.5 -40.5q0 -23 16.5 -39.5t39.5 -16.5z" />
    <glyph glyph-name="yen" unicode="&#xa5;" horiz-adv-x="679" 
d="M426 239h75v-80h-105v-159h-110v159h-108v80h78l-226 461h123l112 -229h151l111 229h122zM377 391h-73l37 -75z" />
    <glyph glyph-name="brokenbar" unicode="&#xa6;" 
 />
    <glyph glyph-name="section" unicode="&#xa7;" 
 />
    <glyph glyph-name="dieresis" unicode="&#xa8;" 
 />
    <glyph glyph-name="copyright" unicode="&#xa9;" 
 />
    <glyph glyph-name="guillemotleft" unicode="&#xab;" 
 />
    <glyph glyph-name="logicalnot" unicode="&#xac;" 
 />
    <glyph glyph-name="registered" unicode="&#xae;" 
 />
    <glyph glyph-name="macron" unicode="&#xaf;" 
 />
    <glyph glyph-name="degree" unicode="&#xb0;" 
 />
    <glyph glyph-name="plusminus" unicode="&#xb1;" 
 />
    <glyph glyph-name="acute" unicode="&#xb4;" 
 />
    <glyph glyph-name="paragraph" unicode="&#xb6;" 
 />
    <glyph glyph-name="periodcentered" unicode="&#xb7;" horiz-adv-x="275" 
d="M138 283q-28 0 -48 19.5t-20 47.5t20 48t48 20t47.5 -20t19.5 -48t-19.5 -47.5t-47.5 -19.5z" />
    <glyph glyph-name="cedilla" unicode="&#xb8;" 
 />
    <glyph glyph-name="guillemotright" unicode="&#xbb;" 
 />
    <glyph glyph-name="questiondown" unicode="&#xbf;" horiz-adv-x="604" 
 />
    <glyph glyph-name="Agrave" unicode="&#xc0;" horiz-adv-x="652" 
d="M212 921h120l78 -180h-120zM140 0h-120l306 700l306 -700h-120l-315 132zM242 233l206 -87l-122 280z" />
    <glyph glyph-name="Aacute" unicode="&#xc1;" horiz-adv-x="652" 
d="M242 741l78 180h120l-78 -180h-120zM140 0h-120l306 700l306 -700h-120l-315 132zM242 233l206 -87l-122 280z" />
    <glyph glyph-name="Acircumflex" unicode="&#xc2;" horiz-adv-x="652" 
d="M165 867l161 75l161 -75l-34 -73l-127 59l-127 -59zM140 0h-120l306 700l306 -700h-120l-315 132zM242 233l206 -87l-122 280z" />
    <glyph glyph-name="Atilde" unicode="&#xc3;" horiz-adv-x="652" 
d="M274 888l104 48l120 -56l-34 -72l-86 40l-104 -48l-120 56l34 72zM140 0h-120l306 700l306 -700h-120l-315 132zM242 233l206 -87l-122 280z" />
    <glyph glyph-name="Adieresis" unicode="&#xc4;" horiz-adv-x="652" 
d="M148 855q0 28 19.5 47.5t47.5 19.5t48 -19.5t20 -47.5t-20 -48t-48 -20t-47.5 20t-19.5 48zM436 922q28 0 48 -19.5t20 -47.5t-20 -48t-48 -20t-47.5 20t-19.5 48t19.5 47.5t47.5 19.5zM140 0h-120l306 700l306 -700h-120l-315 132zM242 233l206 -87l-122 280z" />
    <glyph glyph-name="Aring" unicode="&#xc5;" horiz-adv-x="652" 
d="M239 831q0 36 25.5 61.5t61.5 25.5t61.5 -25.5t25.5 -61.5t-25.5 -62t-61.5 -26t-61.5 26t-25.5 62zM363 831q0 15 -10.5 26t-26.5 11t-26.5 -11t-10.5 -26q0 -16 10.5 -27t26.5 -11t26.5 11t10.5 27zM140 0h-120l306 700l306 -700h-120l-315 132zM242 233l206 -87
l-122 280z" />
    <glyph glyph-name="AE" unicode="&#xc6;" horiz-adv-x="1194" 
d="M632 0h-120l-315 132l-57 -132h-120l306 700zM737 590v110h372v-110h-372zM448 146l-122 280l-84 -193zM737 295v110h372v-110h-372zM737 110h372v-110h-372v110z" />
    <glyph glyph-name="Ccedilla" unicode="&#xc7;" horiz-adv-x="754" 
d="M684 578l-83 -72q-73 82 -181 82q-98 0 -170 -70q-70 -72 -70 -170t70 -170q72 -70 170 -70q108 0 181 82l83 -72q-90 -104 -226 -118l-1 -2q42 -29 42 -80q0 -40 -28 -68t-68 -28h-65l35 80h30q16 0 16 16q0 7 -4.5 12t-11.5 5h-62l30 66q-47 6 -87 25q-63 26 -111 75
q-51 51 -75 111q-28 63 -28 136t28 136q24 60 75 111q48 49 111 75q63 28 136 28q76 0 145 -31.5t119 -88.5z" />
    <glyph glyph-name="Egrave" unicode="&#xc8;" horiz-adv-x="542" 
d="M345 779h-120l-64 148h120zM85 590v110h372v-110h-372zM85 295v110h372v-110h-372zM85 110h372v-110h-372v110z" />
    <glyph glyph-name="Eacute" unicode="&#xc9;" horiz-adv-x="542" 
d="M5714 4225v110h372v-110h-372zM5714 3930v110h372v-110h-372zM5714 3745h372v-110h-372v110zM395 928l-64 -149h-120l64 149h120zM85 590v110h372v-110h-372zM85 295v110h372v-110h-372zM85 110h372v-110h-372v110z" />
    <glyph glyph-name="Ecircumflex" unicode="&#xca;" horiz-adv-x="542" 
d="M271 853l-127 -59l-33 73l160 75l161 -75l-33 -73zM85 590v110h372v-110h-372zM85 295v110h372v-110h-372zM85 110h372v-110h-372v110z" />
    <glyph glyph-name="Edieresis" unicode="&#xcb;" horiz-adv-x="542" 
d="M271 828q-17 -32 -52 -32q-24 0 -41 17t-17 42q0 24 17 41t41 17q36 0 52 -31q16 31 51 31q24 0 41.5 -17t17.5 -41q0 -25 -17.5 -42t-41.5 -17q-34 0 -51 32zM85 590v110h372v-110h-372zM85 295v110h372v-110h-372zM85 110h372v-110h-372v110z" />
    <glyph glyph-name="Igrave" unicode="&#xcc;" horiz-adv-x="324" 
d="M30 927h120l64 -148h-120zM104 0v700h110v-700h-110z" />
    <glyph glyph-name="Iacute" unicode="&#xcd;" horiz-adv-x="324" 
d="M230 779h-120l64 148h120zM110 700h110v-700h-110v700z" />
    <glyph glyph-name="Icircumflex" unicode="&#xce;" horiz-adv-x="342" 
d="M171 942l161 -75l-34 -73l-127 59l-127 -59l-34 73zM226 0h-110v700h110v-700z" />
    <glyph glyph-name="Idieresis" unicode="&#xcf;" horiz-adv-x="321" 
d="M50 882q0 24 17 41t41 17q36 0 52 -31q16 31 52 31q24 0 41.5 -17t17.5 -41q0 -25 -17.5 -42t-41.5 -17q-35 0 -52 31q-17 -31 -52 -31q-24 0 -41 17t-17 42zM105 700h110v-700h-110v700z" />
    <glyph glyph-name="Eth" unicode="&#xd0;" horiz-adv-x="819" 
d="M132 310h-72v80h72v310h277q145 0 247.5 -102.5t102.5 -247.5t-102.5 -247.5t-247.5 -102.5h-277v310zM242 390h72v-80h-72v-200h167q99 0 169 70q71 71 71 170t-71 170q-70 70 -169 70h-167v-200z" />
    <glyph glyph-name="Ntilde" unicode="&#xd1;" horiz-adv-x="720" 
d="M412 936l120 -56l-34 -72l-86 40l-104 -48l-120 56l34 72l86 -40zM210 0h-110v700h110v-326l300 -234v560h110v-700h-110l-300 234v-234z" />
    <glyph glyph-name="Ograve" unicode="&#xd2;" horiz-adv-x="820" 
d="M470 779h-120l-64 148h120zM60 350q0 145 102.5 247.5t247.5 102.5t247.5 -102.5t102.5 -247.5t-102.5 -247.5t-247.5 -102.5t-247.5 102.5t-102.5 247.5zM240 520q-70 -72 -70 -170t70 -170q72 -70 170 -70t170 70q70 72 70 170t-70 170q-72 70 -170 70t-170 -70z" />
    <glyph glyph-name="Oacute" unicode="&#xd3;" horiz-adv-x="820" 
d="M467 779h-120l64 148h120zM410 700q145 0 247.5 -102.5t102.5 -247.5t-102.5 -247.5t-247.5 -102.5t-247.5 102.5t-102.5 247.5t102.5 247.5t247.5 102.5zM580 180q70 72 70 170t-70 170q-72 70 -170 70t-170 -70q-70 -72 -70 -170t70 -170q72 -70 170 -70t170 70z" />
    <glyph glyph-name="Ocircumflex" unicode="&#xd4;" horiz-adv-x="820" 
d="M410 942l161 -75l-34 -73l-127 59l-127 -59l-34 73zM60 350q0 145 102.5 247.5t247.5 102.5t247.5 -102.5t102.5 -247.5t-102.5 -247.5t-247.5 -102.5t-247.5 102.5t-102.5 247.5zM650 350q0 98 -70 170q-72 70 -170 70t-170 -70q-70 -72 -70 -170t70 -170
q72 -70 170 -70t170 70q70 72 70 170z" />
    <glyph glyph-name="Otilde" unicode="&#xd5;" horiz-adv-x="820" 
d="M462 848l-104 -48l-120 56l34 72l86 -40l104 48l120 -56l-34 -72zM410 700q145 0 247.5 -102.5t102.5 -247.5t-102.5 -247.5t-247.5 -102.5t-247.5 102.5t-102.5 247.5t102.5 247.5t247.5 102.5zM580 180q70 72 70 170t-70 170q-72 70 -170 70t-170 -70q-70 -72 -70 -170
t70 -170q72 -70 170 -70t170 70z" />
    <glyph glyph-name="Odieresis" unicode="&#xd6;" horiz-adv-x="820" 
d="M250 822q0 28 19.5 47.5t47.5 19.5t48 -19.5t20 -47.5t-20 -48t-48 -20t-47.5 20t-19.5 48zM502 889q28 0 48 -19.5t20 -47.5t-20 -48t-48 -20t-47.5 20t-19.5 48t19.5 47.5t47.5 19.5zM410 700q145 0 247.5 -102.5t102.5 -247.5t-102.5 -247.5t-247.5 -102.5
t-247.5 102.5t-102.5 247.5t102.5 247.5t247.5 102.5zM580 180q70 72 70 170t-70 170q-72 70 -170 70t-170 -70q-70 -72 -70 -170t70 -170q72 -70 170 -70t170 70z" />
    <glyph glyph-name="multiply" unicode="&#xd7;" horiz-adv-x="516" 
d="M436 472l-121 -122l121 -122l-56 -56l-122 121l-121 -121l-57 56l122 122l-122 122l57 56l121 -121l122 121z" />
    <glyph glyph-name="Oslash" unicode="&#xd8;" horiz-adv-x="820" 
d="M703 700l57 -57l-76 -76q76 -95 76 -217q0 -145 -102.5 -247.5t-247.5 -102.5q-123 0 -218 76l-75 -76l-57 57l76 75q-76 95 -76 218q0 145 102.5 247.5t247.5 102.5q122 0 217 -76zM214 211l335 335q-64 44 -139 44q-98 0 -170 -70q-70 -72 -70 -170q0 -76 44 -139z
M606 489l-335 -335q63 -44 139 -44q98 0 170 70q70 72 70 170q0 75 -44 139z" />
    <glyph glyph-name="Ugrave" unicode="&#xd9;" horiz-adv-x="730" 
d="M325 745h120l-65 148h-119zM640 700v-425q0 -114 -80.5 -194.5t-193.5 -80.5q-114 0 -195 80.5t-81 194.5v425h110v-425q0 -70 49 -117q48 -48 117 -48q66 0 116 48q48 48 48 117v425h110z" />
    <glyph glyph-name="Uacute" unicode="&#xda;" horiz-adv-x="730" 
d="M426 745h-120l64 148h120zM640 700v-425q0 -114 -80.5 -194.5t-193.5 -80.5q-114 0 -195 80.5t-81 194.5v425h110v-425q0 -70 49 -117q48 -48 117 -48q66 0 116 48q48 48 48 117v425h110z" />
    <glyph glyph-name="Ucircumflex" unicode="&#xdb;" horiz-adv-x="730" 
d="M238 794l-34 73l161 75l161 -75l-34 -73l-127 59zM640 700v-425q0 -114 -80.5 -194.5t-193.5 -80.5q-114 0 -195 80.5t-81 194.5v425h110v-425q0 -70 49 -117q48 -48 117 -48q66 0 116 48q48 48 48 117v425h110z" />
    <glyph glyph-name="Udieresis" unicode="&#xdc;" horiz-adv-x="730" 
d="M205 822q0 28 19.5 47.5t47.5 19.5t48 -19.5t20 -47.5t-20 -48t-48 -20t-47.5 20t-19.5 48zM457 889q28 0 48 -19.5t20 -47.5t-20 -48t-48 -20t-47.5 20t-19.5 48t19.5 47.5t47.5 19.5zM640 700v-425q0 -114 -80.5 -194.5t-193.5 -80.5q-114 0 -195 80.5t-81 194.5v425
h110v-425q0 -70 49 -117q48 -48 117 -48q66 0 116 48q48 48 48 117v425h110z" />
    <glyph glyph-name="Yacute" unicode="&#xdd;" horiz-adv-x="659" 
d="M517 700h122l-253 -523v-177h-110v177l-256 523h123l188 -384zM295 545l77 155h89l-77 -155h-89z" />
    <glyph glyph-name="Thorn" unicode="&#xde;" horiz-adv-x="684" 
d="M210 627h137q115 0 196 -81t81 -196t-81 -196t-196 -81h-137v-73h-110v700h110v-73zM210 183h137q67 0 118 49q49 51 49 118q0 69 -49 118t-118 49h-137v-334z" />
    <glyph glyph-name="germandbls" unicode="&#xdf;" horiz-adv-x="687" 
d="M100 0v501v18q5 77 54.5 129t125.5 52q82 0 140.5 -58t58.5 -141q0 -35 -10 -64q59 -27 96 -83.5t37 -124.5q0 -95 -67 -162t-162 -67h-105v110h105q51 0 84 35q35 33 35 84t-35 84q-23 23 -54 31q-51 -40 -120 -42h-15v110h15q36 2 60 26q26 26 26 63t-26 63t-63 26
q-34 0 -53 -24q-17 -23 -17 -65v-501h-110z" />
    <glyph glyph-name="agrave" unicode="&#xe0;" horiz-adv-x="652" 
d="M212 921h120l78 -180h-120zM140 0h-120l306 700l306 -700h-120l-315 132zM242 233l206 -87l-122 280z" />
    <glyph glyph-name="aacute" unicode="&#xe1;" horiz-adv-x="652" 
d="M242 741l78 180h120l-78 -180h-120zM140 0h-120l306 700l306 -700h-120l-315 132zM242 233l206 -87l-122 280z" />
    <glyph glyph-name="acircumflex" unicode="&#xe2;" horiz-adv-x="652" 
d="M165 867l161 75l161 -75l-34 -73l-127 59l-127 -59zM140 0h-120l306 700l306 -700h-120l-315 132zM242 233l206 -87l-122 280z" />
    <glyph glyph-name="atilde" unicode="&#xe3;" horiz-adv-x="652" 
d="M274 888l104 48l120 -56l-34 -72l-86 40l-104 -48l-120 56l34 72zM140 0h-120l306 700l306 -700h-120l-315 132zM242 233l206 -87l-122 280z" />
    <glyph glyph-name="adieresis" unicode="&#xe4;" horiz-adv-x="652" 
d="M148 855q0 28 19.5 47.5t47.5 19.5t48 -19.5t20 -47.5t-20 -48t-48 -20t-47.5 20t-19.5 48zM436 922q28 0 48 -19.5t20 -47.5t-20 -48t-48 -20t-47.5 20t-19.5 48t19.5 47.5t47.5 19.5zM140 0h-120l306 700l306 -700h-120l-315 132zM242 233l206 -87l-122 280z" />
    <glyph glyph-name="aring" unicode="&#xe5;" horiz-adv-x="652" 
d="M239 831q0 36 25.5 61.5t61.5 25.5t61.5 -25.5t25.5 -61.5t-25.5 -62t-61.5 -26t-61.5 26t-25.5 62zM363 831q0 15 -10.5 26t-26.5 11t-26.5 -11t-10.5 -26q0 -16 10.5 -27t26.5 -11t26.5 11t10.5 27zM140 0h-120l306 700l306 -700h-120l-315 132zM242 233l206 -87
l-122 280z" />
    <glyph glyph-name="ae" unicode="&#xe6;" horiz-adv-x="836" 
d="M766 700v-110h-393l80 -185h313v-110h-265l81 -185h184v-110h-256l-36 81h-299l-35 -81h-120l305 700h441zM325 425l-102 -234h204z" />
    <glyph glyph-name="ccedilla" unicode="&#xe7;" horiz-adv-x="754" 
d="M684 578l-83 -72q-73 82 -181 82q-98 0 -170 -70q-70 -72 -70 -170t70 -170q72 -70 170 -70q108 0 181 82l83 -72q-90 -104 -226 -118l-1 -2q42 -29 42 -80q0 -40 -28 -68t-68 -28h-65l35 80h30q16 0 16 16q0 7 -4.5 12t-11.5 5h-62l30 66q-47 6 -87 25q-63 26 -111 75
q-51 51 -75 111q-28 63 -28 136t28 136q24 60 75 111q48 49 111 75q63 28 136 28q76 0 145 -31.5t119 -88.5z" />
    <glyph glyph-name="egrave" unicode="&#xe8;" horiz-adv-x="557" 
d="M360 779h-120l-64 148h120zM472 110v-110h-372v700h372v-110h-262v-185h262v-110h-262v-185h262z" />
    <glyph glyph-name="eacute" unicode="&#xe9;" horiz-adv-x="557" 
d="M410 928l-64 -149h-120l64 149h120zM472 110v-110h-372v700h372v-110h-262v-185h262v-110h-262v-185h262z" />
    <glyph glyph-name="ecircumflex" unicode="&#xea;" horiz-adv-x="557" 
d="M286 853l-127 -59l-33 73l160 75l161 -75l-33 -73zM472 110v-110h-372v700h372v-110h-262v-185h262v-110h-262v-185h262z" />
    <glyph glyph-name="edieresis" unicode="&#xeb;" horiz-adv-x="557" 
d="M286 828q-17 -32 -52 -32q-24 0 -41 17t-17 42q0 24 17 41t41 17q36 0 52 -31q16 31 51 31q24 0 41.5 -17t17.5 -41q0 -25 -17.5 -42t-41.5 -17q-34 0 -51 32zM472 110v-110h-372v700h372v-110h-262v-185h262v-110h-262v-185h262z" />
    <glyph glyph-name="igrave" unicode="&#xec;" horiz-adv-x="324" 
d="M30 927h120l64 -148h-120zM104 0v700h110v-700h-110z" />
    <glyph glyph-name="iacute" unicode="&#xed;" horiz-adv-x="324" 
d="M230 779h-120l64 148h120zM110 700h110v-700h-110v700z" />
    <glyph glyph-name="icircumflex" unicode="&#xee;" horiz-adv-x="342" 
d="M171 942l161 -75l-34 -73l-127 59l-127 -59l-34 73zM226 0h-110v700h110v-700z" />
    <glyph glyph-name="idieresis" unicode="&#xef;" horiz-adv-x="321" 
d="M50 882q0 24 17 41t41 17q36 0 52 -31q16 31 52 31q24 0 41.5 -17t17.5 -41q0 -25 -17.5 -42t-41.5 -17q-35 0 -52 31q-17 -31 -52 -31q-24 0 -41 17t-17 42zM105 700h110v-700h-110v700z" />
    <glyph glyph-name="eth" unicode="&#xf0;" horiz-adv-x="819" 
d="M132 310h-72v80h72v310h277q145 0 247.5 -102.5t102.5 -247.5t-102.5 -247.5t-247.5 -102.5h-277v310zM242 390h72v-80h-72v-200h167q99 0 169 70q71 71 71 170t-71 170q-70 70 -169 70h-167v-200z" />
    <glyph glyph-name="ntilde" unicode="&#xf1;" horiz-adv-x="720" 
d="M412 936l120 -56l-34 -72l-86 40l-104 -48l-120 56l34 72l86 -40zM210 0h-110v700h110v-326l300 -234v560h110v-700h-110l-300 234v-234z" />
    <glyph glyph-name="ograve" unicode="&#xf2;" horiz-adv-x="820" 
d="M470 779h-120l-64 148h120zM60 350q0 145 102.5 247.5t247.5 102.5t247.5 -102.5t102.5 -247.5t-102.5 -247.5t-247.5 -102.5t-247.5 102.5t-102.5 247.5zM240 520q-70 -72 -70 -170t70 -170q72 -70 170 -70t170 70q70 72 70 170t-70 170q-72 70 -170 70t-170 -70z" />
    <glyph glyph-name="oacute" unicode="&#xf3;" horiz-adv-x="820" 
d="M467 779h-120l64 148h120zM410 700q145 0 247.5 -102.5t102.5 -247.5t-102.5 -247.5t-247.5 -102.5t-247.5 102.5t-102.5 247.5t102.5 247.5t247.5 102.5zM580 180q70 72 70 170t-70 170q-72 70 -170 70t-170 -70q-70 -72 -70 -170t70 -170q72 -70 170 -70t170 70z" />
    <glyph glyph-name="ocircumflex" unicode="&#xf4;" horiz-adv-x="820" 
d="M410 942l161 -75l-34 -73l-127 59l-127 -59l-34 73zM60 350q0 145 102.5 247.5t247.5 102.5t247.5 -102.5t102.5 -247.5t-102.5 -247.5t-247.5 -102.5t-247.5 102.5t-102.5 247.5zM650 350q0 98 -70 170q-72 70 -170 70t-170 -70q-70 -72 -70 -170t70 -170
q72 -70 170 -70t170 70q70 72 70 170z" />
    <glyph glyph-name="otilde" unicode="&#xf5;" horiz-adv-x="820" 
d="M462 848l-104 -48l-120 56l34 72l86 -40l104 48l120 -56l-34 -72zM410 700q145 0 247.5 -102.5t102.5 -247.5t-102.5 -247.5t-247.5 -102.5t-247.5 102.5t-102.5 247.5t102.5 247.5t247.5 102.5zM580 180q70 72 70 170t-70 170q-72 70 -170 70t-170 -70q-70 -72 -70 -170
t70 -170q72 -70 170 -70t170 70z" />
    <glyph glyph-name="odieresis" unicode="&#xf6;" horiz-adv-x="820" 
d="M250 822q0 28 19.5 47.5t47.5 19.5t48 -19.5t20 -47.5t-20 -48t-48 -20t-47.5 20t-19.5 48zM502 889q28 0 48 -19.5t20 -47.5t-20 -48t-48 -20t-47.5 20t-19.5 48t19.5 47.5t47.5 19.5zM410 700q145 0 247.5 -102.5t102.5 -247.5t-102.5 -247.5t-247.5 -102.5
t-247.5 102.5t-102.5 247.5t102.5 247.5t247.5 102.5zM580 180q70 72 70 170t-70 170q-72 70 -170 70t-170 -70q-70 -72 -70 -170t70 -170q72 -70 170 -70t170 70z" />
    <glyph glyph-name="divide" unicode="&#xf7;" horiz-adv-x="554" 
d="M345 521q0 -28 -20 -48t-48 -20t-47.5 20t-19.5 48t19.5 47.5t47.5 19.5t48 -19.5t20 -47.5zM80 404h394v-110h-394v110zM277 247q28 0 48 -20t20 -48t-20 -47.5t-48 -19.5t-47.5 19.5t-19.5 47.5t19.5 48t47.5 20z" />
    <glyph glyph-name="oslash" unicode="&#xf8;" horiz-adv-x="820" 
d="M703 700l57 -57l-76 -76q76 -95 76 -217q0 -145 -102.5 -247.5t-247.5 -102.5q-123 0 -218 76l-75 -76l-57 57l76 75q-76 95 -76 218q0 145 102.5 247.5t247.5 102.5q122 0 217 -76zM214 211l335 335q-64 44 -139 44q-98 0 -170 -70q-70 -72 -70 -170q0 -76 44 -139z
M606 489l-335 -335q63 -44 139 -44q98 0 170 70q70 72 70 170q0 75 -44 139z" />
    <glyph glyph-name="ugrave" unicode="&#xf9;" horiz-adv-x="730" 
d="M325 745h120l-65 148h-119zM640 700v-425q0 -114 -80.5 -194.5t-193.5 -80.5q-114 0 -195 80.5t-81 194.5v425h110v-425q0 -70 49 -117q48 -48 117 -48q66 0 116 48q48 48 48 117v425h110z" />
    <glyph glyph-name="uacute" unicode="&#xfa;" horiz-adv-x="730" 
d="M426 745h-120l64 148h120zM640 700v-425q0 -114 -80.5 -194.5t-193.5 -80.5q-114 0 -195 80.5t-81 194.5v425h110v-425q0 -70 49 -117q48 -48 117 -48q66 0 116 48q48 48 48 117v425h110z" />
    <glyph glyph-name="ucircumflex" unicode="&#xfb;" horiz-adv-x="730" 
d="M238 794l-34 73l161 75l161 -75l-34 -73l-127 59zM640 700v-425q0 -114 -80.5 -194.5t-193.5 -80.5q-114 0 -195 80.5t-81 194.5v425h110v-425q0 -70 49 -117q48 -48 117 -48q66 0 116 48q48 48 48 117v425h110z" />
    <glyph glyph-name="udieresis" unicode="&#xfc;" horiz-adv-x="730" 
d="M205 822q0 28 19.5 47.5t47.5 19.5t48 -19.5t20 -47.5t-20 -48t-48 -20t-47.5 20t-19.5 48zM457 889q28 0 48 -19.5t20 -47.5t-20 -48t-48 -20t-47.5 20t-19.5 48t19.5 47.5t47.5 19.5zM640 700v-425q0 -114 -80.5 -194.5t-193.5 -80.5q-114 0 -195 80.5t-81 194.5v425
h110v-425q0 -70 49 -117q48 -48 117 -48q66 0 116 48q48 48 48 117v425h110z" />
    <glyph glyph-name="yacute" unicode="&#xfd;" horiz-adv-x="659" 
d="M517 700h122l-253 -523v-177h-110v177l-256 523h123l188 -384zM295 545l77 155h89l-77 -155h-89z" />
    <glyph glyph-name="thorn" unicode="&#xfe;" horiz-adv-x="654" 
d="M190 627h137q115 0 196 -81t81 -196t-81 -196t-196 -81h-137v-73h-110v700h110v-73zM190 183h137q67 0 118 49q49 51 49 118q0 69 -49 118t-118 49h-137v-334z" />
    <glyph glyph-name="ydieresis" unicode="&#xff;" horiz-adv-x="659" 
d="M169 822q0 28 19.5 47.5t47.5 19.5t48 -19.5t20 -47.5t-20 -48t-48 -20t-47.5 20t-19.5 48zM422 889q28 0 48 -19.5t20 -47.5t-20 -48t-48 -20t-47.5 20t-19.5 48t19.5 47.5t47.5 19.5zM517 700h122l-253 -523v-177h-110v177l-256 523h123l188 -384z" />
    <glyph glyph-name="Amacron" unicode="&#x100;" horiz-adv-x="652" 
d="M410 789h-168v80h168v-80zM140 0h-120l306 700l306 -700h-120l-315 132zM242 233l206 -87l-122 280z" />
    <glyph glyph-name="amacron" unicode="&#x101;" horiz-adv-x="652" 
d="M410 789h-168v80h168v-80zM140 0h-120l306 700l306 -700h-120l-315 132zM242 233l206 -87l-122 280z" />
    <glyph glyph-name="Abreve" unicode="&#x102;" horiz-adv-x="652" 
d="M195 891h80q0 -21 15 -36t36 -15t36 15t15 36h80q0 -54 -38.5 -92.5t-92.5 -38.5t-92.5 38.5t-38.5 92.5zM140 0h-120l306 700l306 -700h-120l-315 132zM242 233l206 -87l-122 280z" />
    <glyph glyph-name="abreve" unicode="&#x103;" horiz-adv-x="652" 
d="M195 891h80q0 -21 15 -36t36 -15t36 15t15 36h80q0 -54 -38.5 -92.5t-92.5 -38.5t-92.5 38.5t-38.5 92.5zM140 0h-120l306 700l306 -700h-120l-315 132zM242 233l206 -87l-122 280z" />
    <glyph glyph-name="Aogonek" unicode="&#x104;" horiz-adv-x="652" 
d="M140 0h-120l306 700l306 -700h-120l-315 132zM242 233l206 -87l-122 280zM340 -81v-5q0 -6 4.5 -11t11.5 -5h50v-80h-50q-40 0 -68 28t-28 68q0 18 4 30l1 1l26 68l74 -31z" />
    <glyph glyph-name="aogonek" unicode="&#x105;" horiz-adv-x="652" 
d="M140 0h-120l306 700l306 -700h-120l-315 132zM242 233l206 -87l-122 280zM340 -81v-5q0 -6 4.5 -11t11.5 -5h50v-80h-50q-40 0 -68 28t-28 68q0 18 4 30l1 1l26 68l74 -31z" />
    <glyph glyph-name="Cacute" unicode="&#x106;" horiz-adv-x="754" 
d="M480 779h-120l64 148h120zM684 580l-83 -72q-73 82 -181 82q-98 0 -170 -70q-70 -72 -70 -170t70 -170q72 -70 170 -70q108 0 181 82l83 -72q-50 -57 -119 -88.5t-145 -31.5q-73 0 -136 28q-63 26 -111 75q-51 51 -75 111q-28 63 -28 136t28 136q24 60 75 111
q48 49 111 75q63 28 136 28q76 0 145 -31.5t119 -88.5z" />
    <glyph glyph-name="cacute" unicode="&#x107;" horiz-adv-x="754" 
d="M480 779h-120l64 148h120zM684 580l-83 -72q-73 82 -181 82q-98 0 -170 -70q-70 -72 -70 -170t70 -170q72 -70 170 -70q108 0 181 82l83 -72q-50 -57 -119 -88.5t-145 -31.5q-73 0 -136 28q-63 26 -111 75q-51 51 -75 111q-28 63 -28 136t28 136q24 60 75 111
q48 49 111 75q63 28 136 28q76 0 145 -31.5t119 -88.5z" />
    <glyph glyph-name="Cdotaccent" unicode="&#x10a;" horiz-adv-x="754" 
d="M490 830q0 -28 -20 -48t-48 -20t-47.5 20t-19.5 48t19.5 47.5t47.5 19.5t48 -19.5t20 -47.5zM601 192l83 -72q-50 -57 -119 -88.5t-145 -31.5q-73 0 -136 28q-63 26 -111 75q-51 51 -75 111q-28 63 -28 136t28 136q24 60 75 111q48 49 111 75q63 28 136 28
q76 0 145 -31.5t119 -88.5l-83 -72q-73 82 -181 82q-98 0 -170 -70q-70 -72 -70 -170t70 -170q72 -70 170 -70q108 0 181 82z" />
    <glyph glyph-name="cdotaccent" unicode="&#x10b;" horiz-adv-x="754" 
d="M490 830q0 -28 -20 -48t-48 -20t-47.5 20t-19.5 48t19.5 47.5t47.5 19.5t48 -19.5t20 -47.5zM601 192l83 -72q-50 -57 -119 -88.5t-145 -31.5q-73 0 -136 28q-63 26 -111 75q-51 51 -75 111q-28 63 -28 136t28 136q24 60 75 111q48 49 111 75q63 28 136 28
q76 0 145 -31.5t119 -88.5l-83 -72q-73 82 -181 82q-98 0 -170 -70q-70 -72 -70 -170t70 -170q72 -70 170 -70q108 0 181 82z" />
    <glyph glyph-name="Ccaron" unicode="&#x10c;" horiz-adv-x="754" 
d="M409 778l-177 113l43 67l134 -85l133 85l43 -67zM684 580l-83 -72q-73 82 -181 82q-98 0 -170 -70q-70 -72 -70 -170t70 -170q72 -70 170 -70q108 0 181 82l83 -72q-50 -57 -119 -88.5t-145 -31.5q-73 0 -136 28q-63 26 -111 75q-51 51 -75 111q-28 63 -28 136t28 136
q24 60 75 111q48 49 111 75q63 28 136 28q76 0 145 -31.5t119 -88.5z" />
    <glyph glyph-name="ccaron" unicode="&#x10d;" horiz-adv-x="754" 
d="M409 778l-177 113l43 67l134 -85l133 85l43 -67zM684 580l-83 -72q-73 82 -181 82q-98 0 -170 -70q-70 -72 -70 -170t70 -170q72 -70 170 -70q108 0 181 82l83 -72q-50 -57 -119 -88.5t-145 -31.5q-73 0 -136 28q-63 26 -111 75q-51 51 -75 111q-28 63 -28 136t28 136
q24 60 75 111q48 49 111 75q63 28 136 28q76 0 145 -31.5t119 -88.5z" />
    <glyph glyph-name="Dcaron" unicode="&#x10e;" horiz-adv-x="787" 
d="M377 778l-176 113l43 67l133 -85l134 85l43 -67zM100 700v-700h277q145 0 247.5 102.5t102.5 247.5t-102.5 247.5t-247.5 102.5h-277zM210 110v480h167q99 0 169 -70q71 -71 71 -170t-71 -170q-70 -70 -169 -70h-167z" />
    <glyph glyph-name="dcaron" unicode="&#x10f;" horiz-adv-x="787" 
d="M377 778l-176 113l43 67l133 -85l134 85l43 -67zM100 700v-700h277q145 0 247.5 102.5t102.5 247.5t-102.5 247.5t-247.5 102.5h-277zM210 110v480h167q99 0 169 -70q71 -71 71 -170t-71 -170q-70 -70 -169 -70h-167z" />
    <glyph glyph-name="Dcroat" unicode="&#x110;" horiz-adv-x="819" 
d="M132 310h-72v80h72v310h277q145 0 247.5 -102.5t102.5 -247.5t-102.5 -247.5t-247.5 -102.5h-277v310zM242 390h72v-80h-72v-200h167q99 0 169 70q71 71 71 170t-71 170q-70 70 -169 70h-167v-200z" />
    <glyph glyph-name="dcroat" unicode="&#x111;" horiz-adv-x="819" 
d="M132 310h-72v80h72v310h277q145 0 247.5 -102.5t102.5 -247.5t-102.5 -247.5t-247.5 -102.5h-277v310zM242 390h72v-80h-72v-200h167q99 0 169 70q71 71 71 170t-71 170q-70 70 -169 70h-167v-200z" />
    <glyph glyph-name="Emacron" unicode="&#x112;" horiz-adv-x="542" 
d="M187 869h168v-80h-168v80zM85 590v110h372v-110h-372zM85 295v110h372v-110h-372zM85 110h372v-110h-372v110z" />
    <glyph glyph-name="emacron" unicode="&#x113;" horiz-adv-x="557" 
d="M202 869h168v-80h-168v80zM210 590v-185h262v-110h-262v-185h262v-110h-372v700h372v-110h-262z" />
    <glyph glyph-name="Edotaccent" unicode="&#x116;" horiz-adv-x="542" 
d="M338 830q0 -28 -20 -48t-48 -20t-47.5 20t-19.5 48t19.5 47.5t47.5 19.5t48 -19.5t20 -47.5zM85 590v110h372v-110h-372zM85 295v110h372v-110h-372zM85 110h372v-110h-372v110z" />
    <glyph glyph-name="edotaccent" unicode="&#x117;" horiz-adv-x="557" 
d="M353 830q0 -28 -19.5 -48t-48.5 -20q-28 0 -47.5 20t-19.5 48t19.5 47.5t47.5 19.5t48 -19.5t20 -47.5zM472 110v-110h-372v700h372v-110h-262v-185h262v-110h-262v-185h262z" />
    <glyph glyph-name="Eogonek" unicode="&#x118;" horiz-adv-x="586" 
d="M100 700h372v-110h-372v110zM100 405h372v-110h-372v110zM526 -71v-110h-103q-52 0 -88.5 36.5t-36.5 88.5q0 20 6 39v2l7 15h-211v110h372l-64 -162v-4q0 -6 4.5 -10.5t10.5 -4.5h103z" />
    <glyph glyph-name="eogonek" unicode="&#x119;" horiz-adv-x="586" 
d="M526 -72v-110h-102q-52 0 -89 37t-37 89q0 20 6 39l1 1l6 16h-211v700h372v-110h-262v-185h262v-110h-262v-185h262l-63 -162q-1 -2 -1 -4q0 -16 16 -16h102z" />
    <glyph glyph-name="Ecaron" unicode="&#x11a;" horiz-adv-x="542" 
d="M271 778l-176 113l43 67l133 -85l133 85l43 -67zM85 590v110h372v-110h-372zM85 295v110h372v-110h-372zM85 110h372v-110h-372v110z" />
    <glyph glyph-name="ecaron" unicode="&#x11b;" horiz-adv-x="557" 
d="M286 778l-176 113l43 67l133 -85l133 85l43 -67zM472 110v-110h-372v700h372v-110h-262v-185h262v-110h-262v-185h262z" />
    <glyph glyph-name="Gbreve" unicode="&#x11e;" horiz-adv-x="835" 
d="M451 891h80q0 -54 -38.5 -92.5t-92.5 -38.5t-92.5 38.5t-38.5 92.5h80q0 -21 15 -36t36 -15t36 15t15 36zM539 396l236 -236l-78 -78l-30 30q-104 -112 -257 -112q-145 0 -247.5 102.5t-102.5 247.5t102.5 247.5t247.5 102.5q139 0 240 -95l-73 -82q-70 67 -167 67
q-98 0 -170 -70q-70 -72 -70 -170t70 -170q72 -70 170 -70q100 0 170 70l9 10l-128 127z" />
    <glyph glyph-name="gbreve" unicode="&#x11f;" horiz-adv-x="835" 
d="M451 891h80q0 -54 -38.5 -92.5t-92.5 -38.5t-92.5 38.5t-38.5 92.5h80q0 -21 15 -36t36 -15t36 15t15 36zM539 396l236 -236l-78 -78l-30 30q-104 -112 -257 -112q-145 0 -247.5 102.5t-102.5 247.5t102.5 247.5t247.5 102.5q139 0 240 -95l-73 -82q-70 67 -167 67
q-98 0 -170 -70q-70 -72 -70 -170t70 -170q72 -70 170 -70q100 0 170 70l9 10l-128 127z" />
    <glyph glyph-name="Gdotaccent" unicode="&#x120;" horiz-adv-x="835" 
d="M343 830q0 28 19.5 47.5t47.5 19.5t47.5 -19.5t19.5 -47.5t-19.5 -48t-47.5 -20t-47.5 20t-19.5 48zM539 396l236 -236l-78 -78l-30 30q-104 -112 -257 -112q-145 0 -247.5 102.5t-102.5 247.5t102.5 247.5t247.5 102.5q139 0 240 -95l-73 -82q-70 67 -167 67
q-98 0 -170 -70q-70 -72 -70 -170t70 -170q72 -70 170 -70q100 0 170 70l9 10l-128 127z" />
    <glyph glyph-name="gdotaccent" unicode="&#x121;" horiz-adv-x="835" 
d="M343 830q0 28 19.5 47.5t47.5 19.5t47.5 -19.5t19.5 -47.5t-19.5 -48t-47.5 -20t-47.5 20t-19.5 48zM539 396l236 -236l-78 -78l-30 30q-104 -112 -257 -112q-145 0 -247.5 102.5t-102.5 247.5t102.5 247.5t247.5 102.5q139 0 240 -95l-73 -82q-70 67 -167 67
q-98 0 -170 -70q-70 -72 -70 -170t70 -170q72 -70 170 -70q100 0 170 70l9 10l-128 127z" />
    <glyph glyph-name="Gcommaaccent" unicode="&#x122;" horiz-adv-x="835" 
d="M539 393l236 -236l-78 -78l-30 30q-78 -86 -194 -107v-114h-110v112q-129 17 -216 116t-87 231q0 145 102.5 247.5t247.5 102.5q139 0 240 -95l-73 -82q-70 67 -167 67q-98 0 -170 -70q-70 -72 -70 -170t70 -170q72 -70 170 -70q100 0 170 70l9 10l-128 127z" />
    <glyph glyph-name="gcommaaccent" unicode="&#x123;" horiz-adv-x="835" 
d="M539 393l236 -236l-78 -78l-30 30q-78 -86 -194 -107v-114h-110v112q-129 17 -216 116t-87 231q0 145 102.5 247.5t247.5 102.5q139 0 240 -95l-73 -82q-70 67 -167 67q-98 0 -170 -70q-70 -72 -70 -170t70 -170q72 -70 170 -70q100 0 170 70l9 10l-128 127z" />
    <glyph glyph-name="Hbar" unicode="&#x126;" horiz-adv-x="720" 
d="M620 700v-700h-110v82h-300v-82h-110v700h110v-222h300v222h110zM510 368h-300v-176h300v176z" />
    <glyph glyph-name="hbar" unicode="&#x127;" horiz-adv-x="720" 
d="M620 700v-700h-110v82h-300v-82h-110v700h110v-222h300v222h110zM510 368h-300v-176h300v176z" />
    <glyph glyph-name="Imacron" unicode="&#x12a;" horiz-adv-x="328" 
d="M80 869h168v-80h-168v80zM219 0h-110v700h110v-700z" />
    <glyph glyph-name="imacron" unicode="&#x12b;" horiz-adv-x="328" 
d="M80 869h168v-80h-168v80zM219 0h-110v700h110v-700z" />
    <glyph glyph-name="Iogonek" unicode="&#x12e;" horiz-adv-x="355" 
d="M110 700h110v-700h-110v700zM306 0l-37 -94q-1 -1 -1 -4q0 -7 5 -12t12 -5h50v-80h-50q-40 0 -68.5 28.5t-28.5 68.5q0 14 5 29v1l27 68h86z" />
    <glyph glyph-name="iogonek" unicode="&#x12f;" horiz-adv-x="355" 
d="M110 700h110v-700h-110v700zM306 0l-37 -94q-1 -1 -1 -4q0 -7 5 -12t12 -5h50v-80h-50q-40 0 -68.5 28.5t-28.5 68.5q0 14 5 29v1l27 68h86z" />
    <glyph glyph-name="Idotaccent" unicode="&#x130;" horiz-adv-x="335" 
d="M235 830q0 -28 -20 -48t-48 -20t-47.5 20t-19.5 48t19.5 47.5t47.5 19.5t48 -19.5t20 -47.5zM113 700h109v-700h-109v700z" />
    <glyph glyph-name="dotlessi" unicode="&#x131;" 
 />
    <glyph glyph-name="ij" unicode="&#x133;" horiz-adv-x="889" 
 />
    <glyph glyph-name="Kcommaaccent" unicode="&#x136;" horiz-adv-x="707" 
d="M432 373l195 -373h-124l-137 262l-156 -262h-110v700h110v-485l289 485h128zM408 9v-102h-96v118l50 70z" />
    <glyph glyph-name="kcommaaccent" unicode="&#x137;" horiz-adv-x="707" 
d="M432 373l195 -373h-124l-137 262l-156 -262h-110v700h110v-485l289 485h128zM410 9v-102h-96v118l50 70z" />
    <glyph glyph-name="Lacute" unicode="&#x139;" horiz-adv-x="557" 
d="M220 779h-120l64 148h120zM472 0h-372v700h110v-590h262v-110z" />
    <glyph glyph-name="lacute" unicode="&#x13a;" horiz-adv-x="557" 
d="M220 779h-120l64 148h120zM472 0h-372v700h110v-590h262v-110z" />
    <glyph glyph-name="Lcommaaccent" unicode="&#x13b;" horiz-adv-x="552" 
d="M472 110l-68 -218h-115l34 108h-223v700h110v-590h262z" />
    <glyph glyph-name="lcommaaccent" unicode="&#x13c;" horiz-adv-x="552" 
d="M472 110l-68 -218h-115l34 108h-223v700h110v-590h262z" />
    <glyph glyph-name="lcaron" unicode="&#x13e;" horiz-adv-x="557" 
d="M210 700v-590h262v-110h-372v700h110zM401 700v-148h-100v148h100z" />
    <glyph glyph-name="Ldot" unicode="&#x13f;" horiz-adv-x="557" 
d="M210 700v-590h262v-110h-372v700h110zM418 363q0 -28 -20 -48t-48 -20t-47.5 20t-19.5 48t19.5 47.5t47.5 19.5t48 -19.5t20 -47.5z" />
    <glyph glyph-name="ldot" unicode="&#x140;" horiz-adv-x="557" 
d="M210 700v-590h262v-110h-372v700h110zM418 363q0 -28 -20 -48t-48 -20t-47.5 20t-19.5 48t19.5 47.5t47.5 19.5t48 -19.5t20 -47.5z" />
    <glyph glyph-name="Lslash" unicode="&#x141;" horiz-adv-x="592" 
d="M135 0v265l-73 -56h-2v100l75 57v334h110v-249l74 57v-101l-74 -57v-240h262v-110h-372z" />
    <glyph glyph-name="lslash" unicode="&#x142;" horiz-adv-x="592" 
d="M135 0v265l-73 -56h-2v100l75 57v334h110v-249l74 57v-101l-74 -57v-240h262v-110h-372z" />
    <glyph glyph-name="Nacute" unicode="&#x143;" horiz-adv-x="720" 
d="M300 779l64 148h120l-64 -148h-120zM210 0h-110v700h110v-326l300 -234v560h110v-700h-110l-300 234v-234z" />
    <glyph glyph-name="nacute" unicode="&#x144;" horiz-adv-x="720" 
d="M300 779l64 148h120l-64 -148h-120zM210 0h-110v700h110v-326l300 -234v560h110v-700h-110l-300 234v-234z" />
    <glyph glyph-name="Ncommaaccent" unicode="&#x145;" horiz-adv-x="720" 
d="M210 0h-110v700h110v-326l300 -234v560h110v-700h-110l-300 234v-234zM310 -88v144l100 -78v-66h-100z" />
    <glyph glyph-name="ncommaaccent" unicode="&#x146;" horiz-adv-x="720" 
d="M620 700h-110v-475l-300 235v240h-110v-700h110v320l410 -320v700zM427 10v-98h-100v176z" />
    <glyph glyph-name="Ncaron" unicode="&#x147;" horiz-adv-x="720" 
d="M360 778l-176 113l43 67l133 -85l133 85l43 -67zM210 0h-110v700h110v-326l300 -234v560h110v-700h-110l-300 234v-234z" />
    <glyph glyph-name="ncaron" unicode="&#x148;" horiz-adv-x="720" 
d="M360 778l-176 113l43 67l133 -85l133 85l43 -67zM210 0h-110v700h110v-326l300 -234v560h110v-700h-110l-300 234v-234z" />
    <glyph glyph-name="Eng" unicode="&#x14a;" horiz-adv-x="720" 
d="M210 0h-110v700h110v-326l300 -234v560h110v-722q0 -73 -52 -125t-125 -52v110q28 0 47.5 19.5t19.5 47.5v22l-300 234v-234z" />
    <glyph glyph-name="eng" unicode="&#x14b;" horiz-adv-x="720" 
d="M210 0h-110v700h110v-326l300 -234v560h110v-722q0 -73 -52 -125t-125 -52v110q28 0 47.5 19.5t19.5 47.5v22l-300 234v-234z" />
    <glyph glyph-name="Omacron" unicode="&#x14c;" horiz-adv-x="820" 
d="M326 869h168v-80h-168v80zM410 700q145 0 247.5 -102.5t102.5 -247.5t-102.5 -247.5t-247.5 -102.5t-247.5 102.5t-102.5 247.5t102.5 247.5t247.5 102.5zM580 180q70 72 70 170t-70 170q-72 70 -170 70t-170 -70q-70 -72 -70 -170t70 -170q72 -70 170 -70t170 70z" />
    <glyph glyph-name="omacron" unicode="&#x14d;" horiz-adv-x="820" 
d="M326 869h168v-80h-168v80zM410 700q145 0 247.5 -102.5t102.5 -247.5t-102.5 -247.5t-247.5 -102.5t-247.5 102.5t-102.5 247.5t102.5 247.5t247.5 102.5zM580 180q70 72 70 170t-70 170q-72 70 -170 70t-170 -70q-70 -72 -70 -170t70 -170q72 -70 170 -70t170 70z" />
    <glyph glyph-name="Ohungarumlaut" unicode="&#x150;" horiz-adv-x="820" 
d="M437 894l-64 -148h-120l65 148h119zM623 894l-64 -148h-120l64 148h120zM410 700q145 0 247.5 -102.5t102.5 -247.5t-102.5 -247.5t-247.5 -102.5t-247.5 102.5t-102.5 247.5t102.5 247.5t247.5 102.5zM580 180q70 72 70 170t-70 170q-72 70 -170 70t-170 -70
q-70 -72 -70 -170t70 -170q72 -70 170 -70t170 70z" />
    <glyph glyph-name="ohungarumlaut" unicode="&#x151;" horiz-adv-x="820" 
d="M437 894l-64 -148h-120l65 148h119zM623 894l-64 -148h-120l64 148h120zM410 700q145 0 247.5 -102.5t102.5 -247.5t-102.5 -247.5t-247.5 -102.5t-247.5 102.5t-102.5 247.5t102.5 247.5t247.5 102.5zM580 180q70 72 70 170t-70 170q-72 70 -170 70t-170 -70
q-70 -72 -70 -170t70 -170q72 -70 170 -70t170 70z" />
    <glyph glyph-name="oe" unicode="&#x153;" horiz-adv-x="842" 
d="M772 0h-372q-145 0 -247.5 102.5t-102.5 247.5t102.5 247.5t247.5 102.5h372v-110h-262v-185h262v-110h-262v-185h262v-110zM400 110v480q-98 0 -170 -70q-70 -72 -70 -170t70 -170q72 -70 170 -70z" />
    <glyph glyph-name="Racute" unicode="&#x154;" horiz-adv-x="710" 
d="M398 779h-120l64 148h120zM100 700h232q128 0 218 -90t90 -218q0 -80 -38.5 -149t-104.5 -111l84 -132h-130l-57 90q-30 -6 -62 -6h-122v-84h-110v700zM210 194h122q82 0 140 58q58 56 58 140t-58 140q-58 58 -140 58h-122v-396z" />
    <glyph glyph-name="racute" unicode="&#x155;" horiz-adv-x="710" 
d="M398 779h-120l64 148h120zM100 700h232q128 0 218 -90t90 -218q0 -80 -38.5 -149t-104.5 -111l84 -132h-130l-57 90q-30 -6 -62 -6h-122v-84h-110v700zM210 194h122q82 0 140 58q58 56 58 140t-58 140q-58 58 -140 58h-122v-396z" />
    <glyph glyph-name="Rcommaaccent" unicode="&#x156;" horiz-adv-x="710" 
d="M100 700h232q128 0 218 -90t90 -218q0 -80 -38.5 -149t-104.5 -111l84 -132h-130l-57 90q-30 -6 -62 -6h-122v-84h-110v700zM210 194h122q82 0 140 58q58 56 58 140t-58 140q-58 58 -140 58h-122v-396zM270 17h100v-105h-100v105z" />
    <glyph glyph-name="rcommaaccent" unicode="&#x157;" horiz-adv-x="710" 
d="M100 700h232q128 0 218 -90t90 -218q0 -80 -38.5 -149t-104.5 -111l84 -132h-130l-57 90q-30 -6 -62 -6h-122v-84h-110v700zM210 194h122q82 0 140 58q58 56 58 140t-58 140q-58 58 -140 58h-122v-396zM270 17h100v-105h-100v105z" />
    <glyph glyph-name="Rcaron" unicode="&#x158;" horiz-adv-x="710" 
d="M332 778l-176 113l43 67l133 -85l133 85l43 -67zM100 700h232q128 0 218 -90t90 -218q0 -80 -38.5 -149t-104.5 -111l84 -132h-130l-57 90q-30 -6 -62 -6h-122v-84h-110v700zM210 194h122q82 0 140 58q58 56 58 140t-58 140q-58 58 -140 58h-122v-396z" />
    <glyph glyph-name="rcaron" unicode="&#x159;" horiz-adv-x="710" 
d="M332 778l-176 113l43 67l133 -85l133 85l43 -67zM100 700h232q128 0 218 -90t90 -218q0 -80 -38.5 -149t-104.5 -111l84 -132h-130l-57 90q-30 -6 -62 -6h-122v-84h-110v700zM210 194h122q82 0 140 58q58 56 58 140t-58 140q-58 58 -140 58h-122v-396z" />
    <glyph glyph-name="Sacute" unicode="&#x15a;" horiz-adv-x="575" 
d="M227 779l64 148h120l-64 -148h-120zM481 507h-111q0 34 -24.5 58t-58.5 24t-58 -24t-24 -58t24 -58.5t58 -24.5q88 0 150.5 -62t62.5 -150t-62.5 -150t-150.5 -62t-150 62t-62 150h111q0 -41 30 -71q28 -30 71 -30t72 30q30 30 30 71q0 42 -30 72t-72 30
q-80 0 -136.5 56.5t-56.5 136.5q0 79 57 136t136 57q80 0 137 -56.5t57 -136.5z" />
    <glyph glyph-name="sacute" unicode="&#x15b;" horiz-adv-x="575" 
d="M227 779l64 148h120l-64 -148h-120zM481 507h-111q0 34 -24.5 58t-58.5 24t-58 -24t-24 -58t24 -58.5t58 -24.5q88 0 150.5 -62t62.5 -150t-62.5 -150t-150.5 -62t-150 62t-62 150h111q0 -41 30 -71q28 -30 71 -30t72 30q30 30 30 71q0 42 -30 72t-72 30
q-80 0 -136.5 56.5t-56.5 136.5q0 79 57 136t136 57q80 0 137 -56.5t57 -136.5z" />
    <glyph glyph-name="Scedilla" unicode="&#x15e;" horiz-adv-x="575" 
d="M481 507h-111q0 34 -24.5 58t-58.5 24t-58 -24t-24 -58t24 -58.5t58 -24.5q88 0 150.5 -62t62.5 -150q0 -75 -47 -133t-120 -74q35 -29 35 -74q0 -40 -28 -68.5t-68 -28.5h-65l35 80h30q7 0 11.5 5t4.5 12q0 16 -16 16h-62l27 59q-71 17 -116.5 74.5t-45.5 131.5h111
q0 -41 30 -71q28 -30 71 -30t72 30q30 30 30 71q0 42 -30 72t-72 30q-80 0 -136.5 56.5t-56.5 136.5q0 79 57 136t136 57q80 0 137 -56.5t57 -136.5z" />
    <glyph glyph-name="scedilla" unicode="&#x15f;" horiz-adv-x="575" 
d="M481 507h-111q0 34 -24.5 58t-58.5 24t-58 -24t-24 -58t24 -58.5t58 -24.5q88 0 150.5 -62t62.5 -150q0 -75 -47 -133t-120 -74q35 -29 35 -74q0 -40 -28 -68.5t-68 -28.5h-65l35 80h30q7 0 11.5 5t4.5 12q0 16 -16 16h-62l27 59q-71 17 -116.5 74.5t-45.5 131.5h111
q0 -41 30 -71q28 -30 71 -30t72 30q30 30 30 71q0 42 -30 72t-72 30q-80 0 -136.5 56.5t-56.5 136.5q0 79 57 136t136 57q80 0 137 -56.5t57 -136.5z" />
    <glyph glyph-name="Scaron" unicode="&#x160;" horiz-adv-x="575" 
d="M287 778l-176 113l43 67l133 -85l134 85l43 -67zM481 507h-111q0 34 -24.5 58t-58.5 24t-58 -24t-24 -58t24 -58.5t58 -24.5q88 0 150.5 -62t62.5 -150t-62.5 -150t-150.5 -62t-150 62t-62 150h111q0 -41 30 -71q28 -30 71 -30t72 30q30 30 30 71q0 42 -30 72t-72 30
q-80 0 -136.5 56.5t-56.5 136.5q0 79 57 136t136 57q80 0 137 -56.5t57 -136.5z" />
    <glyph glyph-name="scaron" unicode="&#x161;" horiz-adv-x="575" 
d="M287 778l-176 113l43 67l133 -85l134 85l43 -67zM481 507h-111q0 34 -24.5 58t-58.5 24t-58 -24t-24 -58t24 -58.5t58 -24.5q88 0 150.5 -62t62.5 -150t-62.5 -150t-150.5 -62t-150 62t-62 150h111q0 -41 30 -71q28 -30 71 -30t72 30q30 30 30 71q0 42 -30 72t-72 30
q-80 0 -136.5 56.5t-56.5 136.5q0 79 57 136t136 57q80 0 137 -56.5t57 -136.5z" />
    <glyph glyph-name="Tcedilla" unicode="&#x162;" horiz-adv-x="512" 
d="M70 700h372v-110h-131v-590q35 -5 58.5 -32t23.5 -63q0 -41 -28.5 -69t-68.5 -28h-92l40 80h52q7 0 12 5t5 12t-5 11.5t-12 4.5h-95v669h-131v110z" />
    <glyph glyph-name="tcedilla" unicode="&#x163;" horiz-adv-x="512" 
d="M70 700h372v-110h-131v-590q35 -5 58.5 -32t23.5 -63q0 -41 -28.5 -69t-68.5 -28h-92l40 80h52q7 0 12 5t5 12t-5 11.5t-12 4.5h-95v669h-131v110z" />
    <glyph glyph-name="Tcaron" unicode="&#x164;" horiz-adv-x="512" 
d="M256 778l-176 113l43 67l133 -85l133 85l43 -67zM70 700h372v-110h-131v-590h-110v590h-131v110z" />
    <glyph glyph-name="tcaron" unicode="&#x165;" horiz-adv-x="512" 
d="M256 778l-176 113l43 67l133 -85l133 85l43 -67zM70 700h372v-110h-131v-590h-110v590h-131v110z" />
    <glyph glyph-name="Tbar" unicode="&#x166;" horiz-adv-x="512" 
d="M201 415h-131v80h131v95h-131v110h372v-110h-131v-95h131v-80h-131v-415h-110v415z" />
    <glyph glyph-name="tbar" unicode="&#x167;" horiz-adv-x="512" 
d="M201 415h-131v80h131v95h-131v110h372v-110h-131v-95h131v-80h-131v-415h-110v415z" />
    <glyph glyph-name="Umacron" unicode="&#x16a;" horiz-adv-x="730" 
d="M313 779l-120 56l33 72l87 -40l103 48l120 -56l-33 -72l-87 40zM640 700v-425q0 -114 -80.5 -194.5t-194.5 -80.5t-194.5 80.5t-80.5 194.5v425h109v-425q0 -70 49 -117q48 -48 117 -48q67 0 117 48q48 48 48 117v425h110z" />
    <glyph glyph-name="umacron" unicode="&#x16b;" horiz-adv-x="730" 
d="M313 779l-120 56l33 72l87 -40l103 48l120 -56l-33 -72l-87 40zM640 700v-425q0 -114 -80.5 -194.5t-194.5 -80.5t-194.5 80.5t-80.5 194.5v425h109v-425q0 -70 49 -117q48 -48 117 -48q67 0 117 48q48 48 48 117v425h110z" />
    <glyph glyph-name="Uring" unicode="&#x16e;" horiz-adv-x="730" 
d="M453 831q0 -36 -26 -62t-62 -26t-61.5 26t-25.5 62t25.5 61.5t61.5 25.5t62 -25.5t26 -61.5zM328 831q0 -16 10.5 -27t26.5 -11t27 11t11 27q0 15 -11 26t-27 11t-26.5 -11t-10.5 -26zM640 700v-425q0 -114 -80.5 -194.5t-193.5 -80.5q-114 0 -195 80.5t-81 194.5v425
h110v-425q0 -70 49 -117q48 -48 117 -48q66 0 116 48q48 48 48 117v425h110z" />
    <glyph glyph-name="uring" unicode="&#x16f;" horiz-adv-x="730" 
d="M453 831q0 -36 -26 -62t-62 -26t-61.5 26t-25.5 62t25.5 61.5t61.5 25.5t62 -25.5t26 -61.5zM328 831q0 -16 10.5 -27t26.5 -11t27 11t11 27q0 15 -11 26t-27 11t-26.5 -11t-10.5 -26zM640 700v-425q0 -114 -80.5 -194.5t-193.5 -80.5q-114 0 -195 80.5t-81 194.5v425
h110v-425q0 -70 49 -117q48 -48 117 -48q66 0 116 48q48 48 48 117v425h110z" />
    <glyph glyph-name="Uhungarumlaut" unicode="&#x170;" horiz-adv-x="730" 
d="M398 893l-64 -148h-120l64 148h120zM583 893l-64 -148h-120l64 148h120zM640 700v-425q0 -114 -80.5 -194.5t-193.5 -80.5q-114 0 -195 80.5t-81 194.5v425h110v-425q0 -70 49 -117q48 -48 117 -48q66 0 116 48q48 48 48 117v425h110z" />
    <glyph glyph-name="uhungarumlaut" unicode="&#x171;" horiz-adv-x="730" 
d="M398 893l-64 -148h-120l64 148h120zM583 893l-64 -148h-120l64 148h120zM640 700v-425q0 -114 -80.5 -194.5t-193.5 -80.5q-114 0 -195 80.5t-81 194.5v425h110v-425q0 -70 49 -117q48 -48 117 -48q66 0 116 48q48 48 48 117v425h110z" />
    <glyph glyph-name="Uogonek" unicode="&#x172;" horiz-adv-x="730" 
d="M640 700v-425q0 -104 -68 -181t-168 -91l-33 -84q-1 -2 -1 -5q0 -6 5 -11t12 -5h50v-80h-50q-40 0 -68.5 28t-28.5 68q0 15 5 30v1l23 59q-98 17 -163 93.5t-65 177.5v425h110v-425q0 -71 48 -117q48 -48 117 -48q67 0 117 48q48 48 48 117v425h110z" />
    <glyph glyph-name="uogonek" unicode="&#x173;" horiz-adv-x="730" 
d="M640 700v-425q0 -104 -68 -181t-168 -91l-33 -84q-1 -2 -1 -5q0 -6 5 -11t12 -5h50v-80h-50q-40 0 -68.5 28t-28.5 68q0 15 5 30v1l23 59q-98 17 -163 93.5t-65 177.5v425h110v-425q0 -71 48 -117q48 -48 117 -48q67 0 117 48q48 48 48 117v425h110z" />
    <glyph glyph-name="Wcircumflex" unicode="&#x174;" horiz-adv-x="1034" 
d="M231 794v88l127 59l127 -59v-88l-127 59zM1014 700l-487 -700l-170 244l-169 -244h-134l236 341l-250 359h134l183 -263l184 263h134l-251 -359l103 -148l353 507h134z" />
    <glyph glyph-name="wcircumflex" unicode="&#x175;" horiz-adv-x="1034" 
d="M231 794v88l127 59l127 -59v-88l-127 59zM1014 700l-487 -700l-170 244l-169 -244h-134l236 341l-250 359h134l183 -263l184 263h134l-251 -359l103 -148l353 507h134z" />
    <glyph glyph-name="Ycircumflex" unicode="&#x176;" horiz-adv-x="659" 
d="M330 853l-128 -59l-33 73l161 75l160 -75l-33 -73zM517 700h122l-253 -523v-177h-110v177l-256 523h123l188 -384z" />
    <glyph glyph-name="ycircumflex" unicode="&#x177;" horiz-adv-x="659" 
d="M330 853l-128 -59l-33 73l161 75l160 -75l-33 -73zM517 700h122l-253 -523v-177h-110v177l-256 523h123l188 -384z" />
    <glyph glyph-name="Ydieresis" unicode="&#x178;" horiz-adv-x="659" 
d="M169 822q0 28 19.5 47.5t47.5 19.5t48 -19.5t20 -47.5t-20 -48t-48 -20t-47.5 20t-19.5 48zM422 889q28 0 48 -19.5t20 -47.5t-20 -48t-48 -20t-47.5 20t-19.5 48t19.5 47.5t47.5 19.5zM517 700h122l-253 -523v-177h-110v177l-256 523h123l188 -384z" />
    <glyph glyph-name="Zacute" unicode="&#x179;" horiz-adv-x="700" 
d="M474 927l-64 -148h-120l64 148h120zM610 700l-332 -590h332v-110h-520l332 590h-332v110h520z" />
    <glyph glyph-name="zacute" unicode="&#x17a;" horiz-adv-x="700" 
d="M474 927l-64 -148h-120l64 148h120zM610 700l-332 -590h332v-110h-520l332 590h-332v110h520z" />
    <glyph glyph-name="Zdotaccent" unicode="&#x17b;" horiz-adv-x="700" 
d="M417 830q0 -28 -19.5 -48t-47.5 -20t-47.5 20t-19.5 48t19.5 47.5t47.5 19.5t47.5 -19.5t19.5 -47.5zM610 700l-332 -590h332v-110h-520l332 590h-332v110h520z" />
    <glyph glyph-name="zdotaccent" unicode="&#x17c;" horiz-adv-x="700" 
d="M417 830q0 -28 -19.5 -48t-47.5 -20t-47.5 20t-19.5 48t19.5 47.5t47.5 19.5t47.5 -19.5t19.5 -47.5zM610 700l-332 -590h332v-110h-520l332 590h-332v110h520z" />
    <glyph glyph-name="Zcaron" unicode="&#x17d;" horiz-adv-x="700" 
d="M526 891l-176 -113l-177 113l43 67l134 -85l133 85zM610 700l-332 -590h332v-110h-520l332 590h-332v110h520z" />
    <glyph glyph-name="zcaron" unicode="&#x17e;" horiz-adv-x="700" 
d="M526 891l-176 -113l-177 113l43 67l134 -85l133 85zM610 700l-332 -590h332v-110h-520l332 590h-332v110h520z" />
    <glyph glyph-name="florin" unicode="&#x192;" 
 />
    <glyph glyph-name="Scommaaccent" unicode="&#x218;" horiz-adv-x="575" 
d="M481 507h-111q0 34 -24.5 58t-58.5 24t-58 -24t-24 -58t24 -58.5t58 -24.5q88 0 150.5 -62t62.5 -150q0 -73 -44 -129.5t-113 -75.5v-116h-110v116q-69 18 -113.5 75t-44.5 130h111q0 -41 30 -71q28 -30 71 -30t72 30q30 30 30 71q0 42 -30 72t-72 30q-80 0 -136.5 56.5
t-56.5 136.5q0 79 57 136t136 57q80 0 137 -56.5t57 -136.5z" />
    <glyph glyph-name="scommaaccent" unicode="&#x219;" horiz-adv-x="575" 
d="M481 507h-111q0 34 -24.5 58t-58.5 24t-58 -24t-24 -58t24 -58.5t58 -24.5q88 0 150.5 -62t62.5 -150q0 -73 -44 -129.5t-113 -75.5v-116h-110v116q-69 18 -113.5 75t-44.5 130h111q0 -41 30 -71q28 -30 71 -30t72 30q30 30 30 71q0 42 -30 72t-72 30q-80 0 -136.5 56.5
t-56.5 136.5q0 79 57 136t136 57q80 0 137 -56.5t57 -136.5z" />
    <glyph glyph-name="uni021A" unicode="&#x21a;" horiz-adv-x="512" 
d="M70 700h372v-110h-131v-590h-110v590h-131v110zM201 -34h110v-96h-110v96z" />
    <glyph glyph-name="uni021B" unicode="&#x21b;" horiz-adv-x="512" 
d="M70 700h372v-110h-131v-590h-110v590h-131v110zM201 -34h110v-96h-110v96z" />
    <glyph glyph-name="uni02BC" unicode="&#x2bc;" 
 />
    <glyph glyph-name="circumflex" unicode="&#x2c6;" 
 />
    <glyph glyph-name="caron" unicode="&#x2c7;" 
 />
    <glyph glyph-name="breve" unicode="&#x2d8;" 
 />
    <glyph glyph-name="dotaccent" unicode="&#x2d9;" 
 />
    <glyph glyph-name="ring" unicode="&#x2da;" 
 />
    <glyph glyph-name="ogonek" unicode="&#x2db;" 
 />
    <glyph glyph-name="tilde" unicode="&#x2dc;" 
 />
    <glyph glyph-name="hungarumlaut" unicode="&#x2dd;" 
 />
    <glyph glyph-name="uni1DC4" unicode="&#x1dc4;" horiz-adv-x="0" 
 />
    <glyph glyph-name="uni1DC5" unicode="&#x1dc5;" horiz-adv-x="0" 
 />
    <glyph glyph-name="uni1DC6" unicode="&#x1dc6;" horiz-adv-x="0" 
 />
    <glyph glyph-name="uni1DC7" unicode="&#x1dc7;" horiz-adv-x="0" 
 />
    <glyph glyph-name="Wgrave" unicode="&#x1e80;" horiz-adv-x="1034" 
d="M305 925h-134l126 -180h134zM1014 700l-487 -700l-170 244l-169 -244h-134l236 341l-250 359h134l183 -263l184 263h134l-251 -359l103 -148l353 507h134z" />
    <glyph glyph-name="wgrave" unicode="&#x1e81;" horiz-adv-x="1034" 
d="M305 925h-134l126 -180h134zM1014 700l-487 -700l-170 244l-169 -244h-134l236 341l-250 359h134l183 -263l184 263h134l-251 -359l103 -148l353 507h134z" />
    <glyph glyph-name="Wacute" unicode="&#x1e82;" horiz-adv-x="1034" 
d="M698 925h134l-126 -180h-134zM1014 700l-487 -700l-170 244l-169 -244h-134l236 341l-250 359h134l183 -263l184 263h134l-251 -359l103 -148l353 507h134z" />
    <glyph glyph-name="wacute" unicode="&#x1e83;" horiz-adv-x="1034" 
d="M698 925h134l-126 -180h-134zM1014 700l-487 -700l-170 244l-169 -244h-134l236 341l-250 359h134l183 -263l184 263h134l-251 -359l103 -148l353 507h134z" />
    <glyph glyph-name="Wdieresis" unicode="&#x1e84;" horiz-adv-x="1034" 
d="M197 830q0 28 19.5 47.5t47.5 19.5t48 -19.5t20 -47.5t-20 -48t-48 -20t-47.5 20t-19.5 48zM450 897q28 0 48 -19.5t20 -47.5t-20 -48t-48 -20t-47.5 20t-19.5 48t19.5 47.5t47.5 19.5zM1014 700l-487 -700l-170 244l-169 -244h-134l236 341l-250 359h134l183 -263
l184 263h134l-251 -359l103 -148l353 507h134z" />
    <glyph glyph-name="wdieresis" unicode="&#x1e85;" horiz-adv-x="1034" 
d="M197 830q0 28 19.5 47.5t47.5 19.5t48 -19.5t20 -47.5t-20 -48t-48 -20t-47.5 20t-19.5 48zM450 897q28 0 48 -19.5t20 -47.5t-20 -48t-48 -20t-47.5 20t-19.5 48t19.5 47.5t47.5 19.5zM1014 700l-487 -700l-170 244l-169 -244h-134l236 341l-250 359h134l183 -263
l184 263h134l-251 -359l103 -148l353 507h134z" />
    <glyph glyph-name="Ygrave" unicode="&#x1ef2;" horiz-adv-x="659" 
d="M142 700h-122l253 -523v-177h110v177l256 523h-123l-188 -384zM364 545l-77 155h-89l77 -155h89z" />
    <glyph glyph-name="ygrave" unicode="&#x1ef3;" horiz-adv-x="659" 
d="M142 700h-122l253 -523v-177h110v177l256 523h-123l-188 -384zM364 545l-77 155h-89l77 -155h89z" />
    <glyph glyph-name="endash" unicode="&#x2013;" horiz-adv-x="416" 
d="M336 405v-110h-256v110h256z" />
    <glyph glyph-name="emdash" unicode="&#x2014;" horiz-adv-x="593" 
d="M80 405h433v-110h-433v110z" />
    <glyph glyph-name="quoteleft" unicode="&#x2018;" horiz-adv-x="220" 
d="M70 700h80v-175h-80v175z" />
    <glyph glyph-name="quoteright" unicode="&#x2019;" horiz-adv-x="220" 
d="M70 700h80v-175h-80v175z" />
    <glyph glyph-name="quotesinglbase" unicode="&#x201a;" 
 />
    <glyph glyph-name="quotedblleft" unicode="&#x201c;" horiz-adv-x="360" 
d="M160 525h-80v175h80v-175zM200 700h80v-175h-80v175z" />
    <glyph glyph-name="quotedblright" unicode="&#x201d;" horiz-adv-x="360" 
d="M160 525h-80v175h80v-175zM200 700h80v-175h-80v175z" />
    <glyph glyph-name="quotedblbase" unicode="&#x201e;" 
 />
    <glyph glyph-name="dagger" unicode="&#x2020;" 
 />
    <glyph glyph-name="daggerdbl" unicode="&#x2021;" 
 />
    <glyph glyph-name="bullet" unicode="&#x2022;" horiz-adv-x="275" 
d="M138 283q-28 0 -48 19.5t-20 48.5q0 28 20 47.5t48 19.5t47.5 -19.5t19.5 -47.5t-19.5 -48t-47.5 -20z" />
    <glyph glyph-name="ellipsis" unicode="&#x2026;" 
 />
    <glyph glyph-name="perthousand" unicode="&#x2030;" 
 />
    <glyph glyph-name="guilsinglleft" unicode="&#x2039;" horiz-adv-x="461" 
d="M60 350l331 240v-136l-144 -104l144 -104v-136z" />
    <glyph glyph-name="guilsinglright" unicode="&#x203a;" horiz-adv-x="461" 
d="M70 590l331 -240l-331 -240v136l144 104l-144 104v136z" />
    <glyph glyph-name="fraction" unicode="&#x2044;" 
 />
    <glyph glyph-name="Euro" unicode="&#x20ac;" horiz-adv-x="667" 
d="M215 197l15 -17q72 -70 170 -70q83 0 149 51l68 -85q-93 -76 -217 -76q-145 0 -247.5 102.5t-102.5 247.5t102.5 247.5t247.5 102.5q124 0 217 -76l-68 -86q-64 52 -149 52q-98 0 -170 -70q-22 -24 -39 -51h112l88 -110h-231v-9q0 -24 4 -43h268l88 -110h-305z" />
    <glyph glyph-name="trademark" unicode="&#x2122;" horiz-adv-x="1266" 
 />
    <glyph glyph-name="partialdiff" unicode="&#x2202;" 
 />
    <glyph glyph-name="emptyset" unicode="&#x2205;" horiz-adv-x="820" 
d="M703 700l57 -57l-76 -76q76 -95 76 -217q0 -145 -102.5 -247.5t-247.5 -102.5q-123 0 -218 76l-75 -76l-57 57l76 75q-76 95 -76 218q0 145 102.5 247.5t247.5 102.5q122 0 217 -76zM214 211l335 335q-64 44 -139 44q-98 0 -170 -70q-70 -72 -70 -170q0 -76 44 -139z
M606 489l-335 -335q63 -44 139 -44q98 0 170 70q70 72 70 170q0 75 -44 139z" />
    <glyph glyph-name="product" unicode="&#x220f;" 
 />
    <glyph glyph-name="summation" unicode="&#x2211;" 
 />
    <glyph glyph-name="minus" unicode="&#x2212;" horiz-adv-x="416" 
d="M336 405v-110h-256v110h256z" />
    <glyph glyph-name="radical" unicode="&#x221a;" 
 />
    <glyph glyph-name="infinity" unicode="&#x221e;" 
 />
    <glyph glyph-name="integral" unicode="&#x222b;" 
 />
    <glyph glyph-name="approxequal" unicode="&#x2248;" horiz-adv-x="504" 
d="M304 496l120 -56l-34 -72l-86 40l-104 -48l-120 56l34 72l86 -40zM304 340l120 -56l-34 -72l-86 40l-104 -48l-120 56l34 72l86 -40z" />
    <glyph glyph-name="notequal" unicode="&#x2260;" 
 />
    <glyph glyph-name="lessequal" unicode="&#x2264;" 
 />
    <glyph glyph-name="greaterequal" unicode="&#x2265;" 
 />
    <glyph glyph-name="lozenge" unicode="&#x25ca;" 
 />
    <glyph glyph-name="zero.osf" 
 />
    <glyph glyph-name="one.osf" 
 />
    <glyph glyph-name="two.osf" 
 />
    <glyph glyph-name="three.osf" 
 />
    <glyph glyph-name="four.osf" 
 />
    <glyph glyph-name="five.osf" 
 />
    <glyph glyph-name="six.osf" 
 />
    <glyph glyph-name="seven.osf" 
 />
    <glyph glyph-name="eight.osf" 
 />
    <glyph glyph-name="nine.osf" 
 />
  </font>
</defs>
</svg>
